<?xml version="1.0" standalone="no"?>
<!DOCTYPE svg PUBLIC "-//W3C//DTD SVG 1.1//EN" "http://www.w3.org/Graphics/SVG/1.1/DTD/svg11.dtd" >
<svg xmlns="http://www.w3.org/2000/svg" xmlns:xlink="http://www.w3.org/1999/xlink" version="1.1">
<metadata></metadata>
<defs>
<font id="janda_scrapgirl_dotsregular" horiz-adv-x="1136" >
<font-face units-per-em="2048" ascent="1638" descent="-410" />
<missing-glyph horiz-adv-x="592" />
<glyph horiz-adv-x="0" />
<glyph unicode="&#xd;" horiz-adv-x="478" />
<glyph unicode=" "  horiz-adv-x="592" />
<glyph unicode="&#x09;" horiz-adv-x="592" />
<glyph unicode="&#xa0;" horiz-adv-x="592" />
<glyph unicode="!" horiz-adv-x="400" d="M88 1894q0 46 34 79t82 33t82 -33t34 -79q0 -34 -19 -61t-49 -41q2 -58 2 -156v-212t-1 -235t-1 -227t-1 -186t1 -112q32 -12 52 -40t20 -62q0 -46 -34 -79t-82 -33t-82 33t-34 79q0 58 48 90q8 282 4 577t0 569q-56 32 -56 96zM96 104q0 46 34 79t82 33t82 -33t34 -79 t-34 -79t-82 -33t-82 33t-34 79z" />
<glyph unicode="&#x22;" horiz-adv-x="976" d="M113 1460q3 62 35 113t76 87t93 53t87 9t59 -42t7 -102q-12 -56 -33 -82t-47 -32t-54 3t-50 21t-37 22t-17 8q-42 -62 -33 -107t44 -79t83 -61t84 -51q12 -10 -2 -21t-40 -19t-57 -7t-49 17q-84 70 -118 139t-31 131zM517 1438q3 62 35 113t76 87t93 53t87 9t59 -42 t7 -102q-12 -56 -33 -82t-47 -32t-54 3t-50 21t-37 22t-17 8q-42 -62 -33 -107t44 -79t83 -61t84 -51q12 -10 -2 -21t-40 -19t-57 -7t-49 17q-84 70 -118 139t-31 131z" />
<glyph unicode="#" horiz-adv-x="1896" d="M76 678q0 46 34 79t82 33q52 0 84 -36l314 -14q4 6 15 29t15 29q6 16 14 57t17 86l17 85t12 56l-296 16q-8 -6 -21 -17t-28 -20t-29 -16t-26 -7q-48 0 -82 33t-34 79t34 79t82 33q36 0 64 -19t42 -49l352 -8l62 424q-28 32 -28 74q0 46 34 79t82 33t82 -33t34 -79 q0 -42 -28 -74t-70 -38l-82 -372q106 0 226 3t226 13q12 12 27 53t31 93t29 108t23 100q-52 32 -52 94q0 46 34 79t82 33t82 -33t34 -79q0 -40 -27 -71t-67 -39l-96 -336l288 8q34 20 66 20q48 0 82 -33t34 -79t-34 -79t-82 -33q-46 0 -79 29t-37 71l-252 -10 q-6 -18 -22 -68t-32 -106t-26 -105t-6 -63l308 -18q12 30 41 50t67 20q48 0 82 -33t34 -79t-34 -79t-82 -33q-30 0 -56 14t-42 36l-348 32l-68 -360q52 -32 52 -92q0 -46 -34 -79t-82 -33t-82 33t-34 79q0 30 15 56t41 40l80 326h-454q-32 -140 -50 -216t-26 -111t-10 -42 l-2 -7q24 -28 24 -66q0 -46 -34 -79t-82 -33t-82 33t-34 79q0 40 27 72t69 38l64 324h-248q-16 -20 -46 -48t-58 -28q-48 0 -82 33t-34 79zM690 762h446q8 0 25 42t34 98t27 110t4 78q-148 0 -233 -2t-129 -5t-57 -8t-17 -11q-26 -66 -56 -148t-44 -154z" />
<glyph unicode="$" horiz-adv-x="1360" d="M24 496q0 46 34 79t82 33t82 -33t34 -79q0 -26 -14 -54q32 -50 66 -86t81 -56t112 -23t159 13q44 96 57 206t3 212q-162 -22 -269 14t-142 114t10 190t189 246q56 42 105 62t90 32t73 25t56 43t39 86t23 154q-38 10 -62 40t-24 70q0 46 34 79t82 33t82 -33t34 -79 q0 -38 -22 -66q4 -56 -7 -125t-39 -137q-20 -26 -14 -32t28 -7t54 -4t65 -23t59 -64t36 -126q32 -14 52 -42t20 -62q0 -46 -34 -79t-82 -33t-82 33t-34 79q0 32 16 57t44 41q-4 28 -13 54t-29 43t-51 22t-77 -7q-40 -112 -55 -236t-5 -242q174 -38 270 -94t128 -119t6 -129 t-94 -123t-172 -100t-228 -61l6 -328q46 -32 46 -90q0 -46 -34 -79t-82 -33t-82 33t-34 79q0 58 46 90l14 298q-92 -18 -171 -7t-144 43t-116 78t-85 98h-4q-48 0 -82 33t-34 79zM436 852q22 -48 96 -61t218 37q18 30 28 86t16 120t9 128t7 114q-84 -6 -161 -55t-131 -115 t-79 -136t-3 -118zM796 320q76 -10 149 15t126 70t77 100t5 102t-91 80t-210 33q-6 -44 -18 -95t-22 -105t-16 -105t0 -95z" />
<glyph unicode="%" horiz-adv-x="1456" d="M57 1626q1 78 54 137t164 86t297 -11h614q16 22 42 36t56 14q48 0 82 -33t34 -79t-34 -79t-82 -33q-24 0 -48 10q-42 -72 -82 -147t-88 -164t-110 -197t-148 -247t-202 -314t-272 -397q-4 -4 -6 -7t-6 -7q30 -34 30 -74q0 -46 -34 -79t-82 -33t-82 33t-34 79t34 79t82 33 h2l918 1488q-66 4 -126 6t-123 3t-135 5t-160 10q-66 -192 -143 -281t-151 -107t-135 21t-94 105t-32 144zM148 1633q-16 -55 24 -121q16 -46 48 -60t70 -3t75 43t63 77t35 98t-11 109q-60 16 -126 1t-114 -52t-64 -92zM836 136q-8 20 3 83t37 140t64 154t83 126t94 58 t99 -51q72 -88 78 -176t-29 -164t-98 -133t-130 -84t-123 -18t-78 65zM920 198q22 -42 61 -39t82 35t82 85t62 110t21 110t-40 85q-36 22 -76 1t-76 -74t-67 -134t-49 -179z" />
<glyph unicode="&#x26;" horiz-adv-x="1688" d="M122 159q-10 77 26 209l418 818q10 20 -9 68t-49 111t-64 136t-54 145t-19 134t42 105t128 59t239 -6q42 -30 70 -67t26 -114t-42 -213t-134 -364l284 -502q24 18 55 55t55 80t37 87t1 76q-30 12 -53 17t-41 7q-30 -24 -74 -24q-48 0 -82 33t-34 79t34 79t82 33 q40 0 70 -34t40 -70l380 -138q34 34 82 34t82 -33t34 -79t-34 -79t-82 -33q-24 0 -37 15t-23 35t-22 38t-34 24l-176 48q6 -64 -9 -112t-40 -87t-54 -71t-50 -65t-28 -69t11 -84q6 -12 17 -36t25 -55t30 -64t32 -63q44 -4 73 -36t29 -74q0 -46 -34 -79t-82 -33t-82 33 t-34 79q0 54 40 84l-156 308q-26 -56 -80 -121t-125 -127t-151 -114t-156 -84t-141 -37t-106 28t-51 110zM230 184q8 -56 44 -69t93 10t122 68t132 107t124 125t97 122t52 101q-54 114 -109 229t-129 219q-2 2 -3 4t-11 -13t-33 -56t-67 -124t-115 -218t-175 -337 q-30 -112 -22 -168zM470 1745q0 -47 19 -107t46 -117t60 -108t61 -79q14 46 38 106t43 122t29 120t-4 100t-58 61t-132 5q-56 2 -79 -27t-23 -76z" />
<glyph unicode="'" horiz-adv-x="648" d="M276 1377q0 37 14 73t41 56t69 19t98 -39q64 -42 78 -102t-4 -121t-58 -117t-84 -91t-84 -43t-56 26q36 30 72 61t63 67t40 77t3 93q-48 -54 -84 -68t-60 -2t-36 43t-12 68z" />
<glyph unicode="(" horiz-adv-x="944" d="M124 779q8 163 44 326t97 310t146 268t191 199q6 4 22 16v6q0 46 34 79t82 33t82 -33t34 -79t-34 -79t-82 -33q-24 0 -32 8l-24 24q-76 -36 -147 -130t-128 -223t-98 -285t-58 -317t-7 -315t54 -282t126 -218t208 -122q14 6 28 10t30 4q48 0 82 -33t34 -79t-34 -79 t-82 -33q-40 0 -70 22t-42 56q-6 0 -8 2q-126 48 -214 145t-143 227t-77 286t-14 319z" />
<glyph unicode=")" horiz-adv-x="840" d="M18 -152q0 46 34 79t82 33q40 0 70 -24q110 64 190 168t133 233t79 275t26 292t-24 286t-71 257t-116 204t-159 129q-28 -20 -66 -20q-48 0 -82 33t-34 79t34 79t82 33t82 -33t34 -79q170 -130 271 -279t147 -307t44 -318t-36 -311t-93 -287t-128 -244t-140 -185 t-129 -109q-6 -40 -38 -68t-76 -28q-48 0 -82 33t-34 79z" />
<glyph unicode="*" horiz-adv-x="1240" d="M154 888q0 46 34 79t82 33q22 0 46 -10q16 20 41 38t55 37t63 40t65 47q-28 20 -58 36t-59 29t-53 25t-36 28q-28 -16 -60 -16q-48 0 -82 33t-34 79t34 79t82 33t82 -33t34 -79q0 -18 -6 -36q16 -6 41 -10t53 -9t56 -12t50 -21q4 58 10 106t16 82q-34 12 -54 41t-20 65 q0 46 34 79t82 33t82 -33t34 -79q0 -40 -24 -69t-60 -39q10 -34 16 -82t10 -106q20 14 46 24t52 19t49 17t37 14v8q0 46 34 79t82 33t82 -33t34 -79t-34 -79t-82 -33q-46 0 -78 28q-12 -12 -32 -26t-44 -28t-49 -29t-43 -31q70 -52 124 -99t88 -83q32 26 76 26q48 0 82 -33 t34 -79t-34 -79t-82 -33t-82 33t-34 79v18q-40 16 -98 47t-124 73q-4 -74 -10 -135t-16 -105q34 -12 57 -41t23 -65q0 -46 -34 -79t-82 -33t-82 33t-34 79q0 34 20 62t52 42q-10 40 -16 98t-10 126q-52 -36 -108 -51t-94 -37q6 -16 6 -36q0 -46 -34 -79t-82 -33t-82 33 t-34 79z" />
<glyph unicode="+" horiz-adv-x="1224" d="M136 768q0 46 34 79t82 33q28 0 53 -13t41 -35h202v310q-36 32 -36 82q0 46 34 79t82 33t82 -33t34 -79q0 -50 -36 -82v-310h224q16 22 41 35t55 13q48 0 82 -33t34 -79t-34 -79t-82 -33q-60 0 -96 48h-224v-344q36 -32 36 -80q0 -46 -34 -79t-82 -33t-82 33t-34 79 q0 48 36 80v344h-202q-32 -48 -94 -48q-48 0 -82 33t-34 79z" />
<glyph unicode="," horiz-adv-x="456" d="M72 78q-10 30 7 68t50 67t74 41t78 -6t64 -77t33 -171q14 -60 -4 -119t-56 -97t-90 -44t-104 36q18 38 54 54t65 36t38 54t-23 110q-90 -14 -133 2t-53 46z" />
<glyph unicode="-" horiz-adv-x="1168" d="M104 620q0 46 34 79t82 33q52 0 88 -40q72 -2 138 -2t135 2t145 5t166 7q14 28 42 45t62 17q48 0 82 -33t34 -79t-34 -79t-82 -33q-54 0 -88 38q-4 0 4 1t5 1h-27t-89 -3t-181 -9t-306 -16q-36 -46 -94 -46q-48 0 -82 33t-34 79z" />
<glyph unicode="." horiz-adv-x="398" d="M96 104q0 46 34 79t82 33t82 -33t34 -79t-34 -79t-82 -33t-82 33t-34 79z" />
<glyph unicode="/" horiz-adv-x="920" d="M-2 102q0 46 34 79t82 33h4l530 1610q-18 26 -18 62q0 46 34 79t82 33t82 -33t34 -79q0 -40 -25 -70t-65 -40q-4 -10 -11 -28t-26 -69t-55 -151t-98 -275t-156 -437t-226 -640q30 -34 30 -74q0 -46 -34 -79t-82 -33t-82 33t-34 79z" />
<glyph unicode="0" horiz-adv-x="1432" d="M77 869q5 171 44 335t108 310t164 251t215 159t260 34q16 22 41 36t55 14q42 0 74 -26t40 -66l16 -16q88 -52 145 -147t86 -218t32 -265t-18 -289t-64 -290t-106 -267t-145 -222t-181 -153t-212 -59t-239 56q-114 82 -185 211t-103 285t-27 327zM184 890q-8 -160 22 -307 t103 -270t197 -199q116 -32 221 8t193 131t158 221t114 279t62 306t2 301t-66 264t-142 196q-32 -36 -84 -36q-32 0 -64 28t-48 52q-100 30 -195 -13t-176 -136t-146 -227t-104 -286t-47 -312z" />
<glyph unicode="1" horiz-adv-x="432" d="M60 100q0 62 52 94l32 1606q-42 36 -42 88q0 46 34 79t82 33t82 -33t34 -79q0 -32 -16 -56t-42 -40q-20 -394 -28 -674t-9 -468t1 -297t2 -161q22 -16 36 -40t14 -52q0 -46 -34 -79t-82 -33t-82 33t-34 79z" />
<glyph unicode="2" horiz-adv-x="1288" d="M64 60q50 108 138 239t193 270t216 283t205 279t162 257t86 217t-23 159t-165 84q-58 6 -145 -6t-172 -35t-154 -54t-93 -65q16 -26 16 -56q0 -46 -34 -79t-82 -33t-82 33t-34 79t34 79t82 33h12q36 46 128 92t203 78t222 45t187 -5q148 -40 188 -137t4 -233t-130 -302 t-214 -344t-248 -357t-232 -343q50 -34 136 -68t183 -55t194 -22t167 33v18q0 46 34 79t82 33t82 -33t34 -79t-34 -79t-82 -33q-38 0 -68 20q-84 -38 -184 -48t-202 2t-199 42t-173 72q-24 -12 -63 -45t-76 -56t-66 -21t-33 62z" />
<glyph unicode="3" horiz-adv-x="1278" d="M56 216q0 46 34 79t82 33t82 -33t34 -79q0 -10 -2 -14l30 -18q108 -62 210 -70t191 23t161 94t122 145t74 176t16 186t-50 176t-126 144q-92 44 -163 51t-128 -7t-103 -41t-88 -51q-4 -46 -37 -76t-79 -30q-48 0 -82 33t-34 79t34 79t82 33q10 0 30 -4q62 60 145 118 t160 131t134 173t67 244q-68 104 -149 121t-159 -20t-147 -109t-113 -146q20 -30 20 -60q0 -46 -34 -79t-82 -33t-82 33t-34 79t34 79t82 33h2q52 112 131 184t165 106t172 32t154 -37t109 -100t37 -157t-62 -210t-188 -258q40 -8 97 -16t117 -32t117 -69t97 -125t55 -202 t-9 -298q-64 -168 -144 -273t-166 -160t-175 -69t-172 1t-156 48t-129 73q-28 -22 -68 -22q-48 0 -82 33t-34 79z" />
<glyph unicode="4" horiz-adv-x="1384" d="M34 1104v30q58 60 134 142t155 172t153 183t132 175q-16 26 -16 58q0 46 34 79t82 33t82 -33t34 -79t-33 -78t-79 -34q-226 -316 -498 -588q178 -70 367 -91t379 1q8 56 17 134t19 168t20 185t20 189q-20 16 -32 39t-12 51q0 46 34 79t82 33t82 -33t34 -79q0 -40 -26 -71 t-66 -39q-8 -70 -15 -152t-15 -168t-14 -172t-10 -164q34 -10 69 -5t69 9q36 42 92 42q48 0 82 -33t34 -79t-34 -79t-82 -33q-38 0 -67 20t-43 52q-36 4 -76 2t-74 -14q-2 -16 -4 -61t-4 -110t-5 -145t-7 -164t-10 -166t-12 -152q42 -36 42 -86q0 -46 -34 -79t-82 -33 t-82 33t-34 79q0 38 23 68t59 40q6 64 12 142t12 159t13 159t12 142t8 110t5 64q-20 0 -71 3t-108 8t-108 10t-71 9q-42 6 -101 17t-122 23t-125 25t-111 24t-79 19t-30 10z" />
<glyph unicode="5" horiz-adv-x="1264" d="M112 128q0 46 34 79t82 33q34 0 63 -18t43 -48q178 -26 314 11t228 114t140 180t51 208t-39 200t-131 155t-225 73t-320 -47q-4 -42 -37 -71t-79 -29q-48 0 -82 33t-34 79q0 30 15 55t39 41q6 74 21 161t36 174t46 167t51 142q-28 14 -46 40t-18 60q0 46 34 79t82 33 q34 0 60 -16t42 -44q68 24 138 34t138 11t129 -5t111 -18q32 22 70 22q48 0 82 -33t34 -79t-34 -79t-82 -33q-44 0 -75 25t-39 65q-132 34 -230 25t-171 -53t-122 -116t-81 -161t-50 -190t-28 -201q10 -4 20 -9t20 -13q110 62 227 81t227 0t202 -75t150 -146t75 -212 t-25 -274q-62 -172 -164 -279t-220 -160t-240 -61t-226 18q-36 -40 -90 -40q-48 0 -82 33t-34 79z" />
<glyph unicode="6" horiz-adv-x="1200" d="M104 250q-14 90 13 219t110 314t230 433t371 576q-20 26 -20 64q0 46 34 79t82 33t82 -33t34 -79t-34 -79t-82 -33h-4q-58 -104 -133 -223t-153 -244t-154 -253t-136 -250t-95 -235t-34 -208t46 -168t149 -117q-28 30 -45 72t-24 87t-5 90t14 79q64 188 156 289t188 135 t187 10t155 -87t88 -155t-13 -194t-146 -205t-311 -187q-12 -30 -41 -49t-65 -19q-30 0 -55 13t-41 35q-52 0 -95 9t-71 31q-68 42 -118 101t-64 149zM454 243q10 -69 66 -111q8 2 14 3t14 1q28 0 52 -12t40 -32q62 0 125 34t115 87t89 120t47 134t-12 126t-86 99 q-62 38 -131 23t-132 -63t-113 -120t-74 -146t-14 -143z" />
<glyph unicode="7" horiz-adv-x="1192" d="M58 1836q0 46 34 79t82 33q32 0 58 -16t42 -42q68 -6 151 -4t170 8t172 13t159 9q32 56 102 56q48 0 82 -33t34 -79t-34 -79t-82 -33q-14 0 -22 2q-26 -100 -63 -227t-85 -308t-106 -428t-126 -589q24 -16 39 -41t15 -53q0 -46 -34 -79t-82 -33t-82 33t-34 79q0 38 23 67 t59 39q58 282 103 494t78 368t57 263t41 179t26 116t15 72t8 49t2 49q-60 6 -134 5t-153 -5t-156 -9t-141 -7q-14 -28 -41 -44t-61 -16q-48 0 -82 33t-34 79z" />
<glyph unicode="8" horiz-adv-x="1296" d="M73 452q5 90 53 166q42 64 77 103t71 72t75 67t87 90q-62 20 -121 74t-105 129t-73 165t-21 185t50 187t140 172l20 12q2 46 35 77t81 31q28 0 52 -12l24 14q152 28 262 -18t176 -137t88 -213t-2 -246t-93 -236t-185 -184q160 -44 261 -110t151 -144t54 -163t-30 -165 q34 -34 34 -78q0 -46 -34 -79t-82 -33q-26 0 -50 10q-66 -60 -152 -106t-185 -69t-210 -18t-227 47q-68 24 -121 89t-79 148t-21 173zM185 413q-11 -87 44 -165t207 -134q214 -34 355 9t217 127q-6 18 -6 40q0 40 25 70t65 40q20 70 12 142t-43 134t-95 108t-143 64t-188 1 t-229 -79q-84 -86 -147 -178t-74 -179zM231 1472q-5 -94 34 -198t141 -206q64 -44 125 -44t117 30t105 83t87 114t64 122t36 109q18 120 -9 205t-84 134t-133 61t-156 -14q-2 -46 -35 -78t-81 -32q-32 0 -60 16q-62 -52 -104 -130t-47 -172z" />
<glyph unicode="9" horiz-adv-x="1064" d="M59 1477q-1 89 51 182t133 169t181 124t196 46t176 -64t122 -206q26 -164 18 -341t-42 -348t-92 -329t-133 -285t-163 -214t-182 -119q-10 -36 -41 -60t-71 -24q-48 0 -82 33t-34 79t34 79t82 33q40 0 72 -26q36 14 71 28t57 38q46 24 94 83t94 142t87 182t72 206t49 214 t18 203q-32 -22 -70 -22q-20 0 -38 6q-84 -58 -179 -84t-193 0q-154 38 -220 112t-67 163zM175 1524q-17 -62 7 -116t104 -86q108 -42 199 -28t161 62q-6 14 -6 36q0 46 34 79t82 33q4 0 10 -1t12 -1q34 58 46 120t0 114q-20 86 -71 122t-118 33t-141 -37t-139 -87 t-114 -117t-66 -126z" />
<glyph unicode=":" horiz-adv-x="512" d="M152 1024q0 46 34 79t82 33t82 -33t34 -79t-34 -79t-82 -33t-82 33t-34 79zM168 536q0 46 34 79t82 33t82 -33t34 -79t-34 -79t-82 -33t-82 33t-34 79z" />
<glyph unicode=";" horiz-adv-x="448" d="M-14 -179q0 11 4 15q48 -6 106 21t105 71t73 99t14 107q-80 -32 -121 -25t-54 36t-2 70t36 77t59 60t68 16t62 -54t42 -150q6 -40 -9 -94t-45 -107t-71 -99t-86 -72t-91 -26t-86 40q-4 4 -4 15zM128 728q0 46 34 79t82 33t82 -33t34 -79t-34 -79t-82 -33t-82 33t-34 79z " />
<glyph unicode="&#x3c;" horiz-adv-x="1160" d="M86 1060q0 52 34 89t82 37q28 0 51 -12t39 -32q52 12 122 28t144 35t146 39t132 36q8 40 40 66t72 26q46 0 80 -36t34 -88t-34 -89t-80 -37q-28 0 -51 12t-39 32q-138 -26 -269 -50t-257 -66q28 -22 97 -50t153 -62t168 -72t142 -80q26 22 62 22q48 0 82 -37t34 -89 t-34 -88t-82 -36q-46 0 -80 36t-34 88v8t2 8q-50 34 -128 65t-162 62t-162 62t-130 67q-28 -16 -58 -16q-48 0 -82 35t-34 87z" />
<glyph unicode="=" horiz-adv-x="1294" d="M140 776q0 46 34 79t82 33q38 0 68 -21t42 -53q144 -4 299 -1t289 19q14 32 43 52t67 20q48 0 82 -33t34 -79t-34 -79t-82 -33q-30 0 -55 13t-41 35q-66 0 -147 -4t-165 -8t-163 -5t-139 3q-16 -22 -42 -36t-56 -14q-48 0 -82 33t-34 79zM142 1104q0 46 34 79t82 33 q38 0 68 -21t42 -53q144 -4 299 -1t289 19q14 32 43 52t67 20q48 0 82 -33t34 -79t-34 -79t-82 -33q-30 0 -55 13t-41 35q-66 0 -147 -4t-165 -8t-163 -5t-139 3q-16 -22 -42 -36t-56 -14q-48 0 -82 33t-34 79z" />
<glyph unicode="&#x3e;" horiz-adv-x="1324" d="M170 754q0 46 34 79t82 33q36 0 64 -18q56 36 140 71t168 66t153 57t97 44q-126 38 -257 60t-269 44q-34 -38 -88 -38q-48 0 -82 33t-34 79t34 79t82 33q40 0 71 -24t41 -60q60 -14 132 -31t146 -34t143 -33t121 -26q36 40 90 40q48 0 82 -33t34 -79t-34 -79t-82 -33 q-16 0 -30 4t-28 10q-52 -30 -130 -58t-162 -56t-161 -56t-127 -60q2 -4 2 -14q0 -46 -34 -79t-82 -33t-82 33t-34 79z" />
<glyph unicode="?" horiz-adv-x="1240" d="M120 1736q0 46 34 79t82 33q16 0 24 -2q126 76 258 91t251 -13t215 -90t152 -141t62 -166t-57 -166t-204 -140t-379 -87v-460q34 -10 58 -39t24 -67q0 -46 -34 -79t-82 -33t-82 33t-34 79q0 48 36 80v576q210 18 343 60t201 97t79 117t-22 119t-104 104t-165 72t-205 22 t-225 -45q6 -16 6 -34q0 -46 -34 -79t-82 -33t-82 33t-34 79zM408 104q0 46 34 79t82 33t82 -33t34 -79t-34 -79t-82 -33t-82 33t-34 79z" />
<glyph unicode="@" horiz-adv-x="2010" d="M80 890q10 124 65 253t137 246t185 213t211 154q150 82 309 116t307 20t276 -75t217 -168t129 -260t14 -349q-10 -98 -60 -172t-123 -124t-160 -73t-173 -17t-163 42t-127 104q-36 -22 -66 -45t-60 -44t-64 -37t-78 -22q-92 -16 -134 33t-44 129t31 175t90 173t133 123 t162 23q40 -26 65 -39t45 -21q10 36 41 59t71 23q48 0 82 -33t34 -79q0 -38 -24 -68t-58 -40q-16 -48 -37 -97t-28 -97t9 -93t70 -81q122 -28 216 13t155 125t87 197t13 227t-66 215t-149 163q-226 114 -439 109t-398 -105t-332 -283t-239 -425q-38 -164 -9 -294t105 -224 t190 -153t243 -82t263 -10t254 63q-2 6 -2 20q0 46 34 79t82 33t82 -33t34 -79t-34 -79t-82 -33q-44 0 -74 24q-164 -78 -351 -95t-359 29q-280 76 -406 269t-102 477zM758 869q-8 -43 1 -75t39 -48t88 -6q88 26 144 70t86 96t37 107t-5 100t-40 75t-67 35t-87 -23t-98 -100 q-16 -24 -37 -62t-37 -82t-24 -87z" />
<glyph unicode="A" horiz-adv-x="1392" d="M32 120q0 40 25 69t63 39q132 386 225 655t158 449t106 287t69 171q-22 28 -22 66q0 46 34 79t82 33t82 -33t34 -79q0 -50 -42 -86q88 -340 157 -595t120 -440t86 -309t55 -198q38 -10 63 -39t25 -69q0 -46 -34 -79t-82 -33t-82 33t-34 79q0 50 38 82q-14 56 -33 126 t-40 143t-43 143t-41 128t-33 99t-20 55l-492 -64q-6 -12 -20 -49t-35 -90t-45 -117t-49 -129t-49 -127t-42 -110q22 -16 35 -39t13 -51q0 -46 -34 -79t-82 -33t-82 33t-34 79zM468 944q46 0 109 6t130 15t130 19t111 16l-184 704q-10 -14 -32 -66t-51 -124t-61 -157 t-62 -165t-54 -147t-36 -101z" />
<glyph unicode="B" horiz-adv-x="1208" d="M22 104q0 40 26 70t66 40q-2 126 -7 312t-8 397t-3 426t8 397q-30 14 -48 41t-18 61q0 46 34 79t82 33q12 0 16 -2q73 40 160 40h8q92 -2 185 -37t179 -96t150 -137t98 -160q26 -63 26 -126q0 -20 -3 -40q-11 -82 -73 -156t-192 -126q188 -24 292 -89t141 -155 q23 -56 23 -119q0 -37 -8 -76q-22 -105 -88 -210t-165 -199t-216 -160t-243 -97q-71 -17 -140 -17q-54 0 -106 10q-28 -16 -60 -16q-48 0 -82 33t-34 79zM193 1392q3 -182 25 -352q66 18 140 41t145 50t135 60t112 71t76 83q26 42 26 88v7q-2 78 -34 148t-83 127t-115 99 t-128 63q-61 20 -118 20h-5q-59 -1 -101 -29q0 -4 1 -10t1 -10q0 -34 -19 -62t-51 -42q-8 -131 -8 -269q0 -41 1 -83zM202 196q42 -26 50 -70q43 -11 89 -10q65 0 137 20q124 36 239 118t204 200t121 258v9q0 114 -50 175q-52 64 -133 90q-68 22 -149 22q-16 0 -32 -1 q-100 -5 -193 -23t-168 -43t-107 -37z" />
<glyph unicode="C" horiz-adv-x="1414" d="M98 861q8 175 43 345t94 325t132 269t159 178q72 54 148 54q14 0 29 -2q91 -12 184 -109t179 -305h2q48 0 82 -33t34 -79t-34 -79t-82 -33t-82 33t-34 79q0 40 24 70q-48 178 -111 262t-134 92q-9 1 -17 1q-63 0 -127 -51q-73 -58 -139 -163t-120 -248t-89 -304t-44 -333 q-2 -44 -2 -88q0 -126 19 -246q34 -158 101 -243t154 -114q54 -18 112 -18q36 0 73 7q98 18 192 66t178 116t144 142q-22 32 -22 68q0 46 34 79t82 33t82 -33t34 -79t-30 -77t-76 -35q-68 -80 -156 -159t-199 -136t-247 -79q-52 -8 -107 -8q-91 0 -191 22q-106 72 -168 198 t-87 283q-19 119 -19 248q0 42 2 84z" />
<glyph unicode="D" horiz-adv-x="1230" d="M18 1870q0 46 34 79t82 33q52 0 86 -38h23q223 0 393 -73q178 -77 297 -206t178 -297q58 -165 58 -339v-6q-1 -177 -60 -350t-177 -312t-295 -230t-411 -105q-32 -28 -76 -28q-48 0 -82 33t-34 79q0 30 15 56t43 40l2 1558q-34 12 -55 41t-21 65zM182 1768l22 -1560 q46 -24 58 -68q212 18 367 101t255 207t146 276q41 137 41 277v31q-5 156 -61 303t-161 260t-256 180q-142 63 -325 63h-22q-16 -48 -64 -70z" />
<glyph unicode="E" horiz-adv-x="1360" d="M78 1856q0 46 34 79t82 33q24 0 45 -9t37 -25q125 5 236 5q100 0 187.5 -4t160.5 -4q81 0 144 5q16 22 42 36t56 14q48 0 82 -33t34 -79t-34 -79t-82 -33q-70 0 -102 58q-58 -5 -125 -5q-42 0 -88 2q-119 5 -229 11q-94 5 -169 5h-24q-83 -1 -103 -21l24 -788l614 8 q16 28 42 44t60 16q48 0 82 -33t34 -79t-34 -79t-82 -33q-60 0 -92 44h-624l4 -710q54 -6 151 -11t210 -7q75 -1 151 -1h76q114 1 202 7q14 30 43 40t65 10q48 0 82 -33t34 -79t-34 -79t-82 -33q-40 0 -70 19t-42 53h-742q-14 -28 -43 -46t-63 -18q-48 0 -82 33t-34 79 q0 30 15 54t39 40q6 66 8 200q1 89 1 205v123q-1 194 -5 443t-12 547q-34 10 -57 40t-23 68z" />
<glyph unicode="F" horiz-adv-x="1056" d="M52 1898q0 46 34 79t82 33q38 0 67 -21t41 -53h46q18 4 61 5t100 2t125 2l136 2t131 3t113 4q16 22 41 35t55 13q48 0 82 -33t34 -79t-34 -79t-82 -33q-40 0 -70 21t-40 55q-52 4 -122 8t-146 4t-151 -4t-137 -13t-104 -25t-52 -38q0 -84 -2 -176t-5 -176t-4 -151v-25 q0 -48 3 -74q42 8 101 13t124 9t130 6t119 6q32 46 94 46q48 0 82 -33t34 -79t-34 -79t-82 -33q-70 0 -102 56q-56 6 -133 8q-31 1 -61 1q-45 0 -87 -2q-71 -3 -120 -13t-49 -26l-14 -856q32 -14 52 -42t20 -62q0 -46 -34 -79t-82 -33t-82 33t-34 79q0 54 42 86 q12 142 17 332t5 403t-6 435t-20 430q-36 10 -59 40t-23 68z" />
<glyph unicode="G" horiz-adv-x="1656" d="M58 493q-10 75 -10 155t10 163q20 167 76 338t142 321t199 268t245 179q115 53 242 53q19 0 38 -1q148 -9 306 -111q8 2 26 2q48 0 82 -33t34 -79t-34 -79t-82 -33t-82 33t-34 79q0 24 10 48q-131 85 -254 85h-14q-130 -5 -245 -76t-211 -196t-168 -278t-114 -319 t-49 -319q-1 -27 -1 -54q0 -122 26 -226q32 -127 109 -201t204 -83q12 -1 25 -1q120 0 284 76q58 26 134 71t152 100t144 115t110 116q8 34 31 95t45 126t37 124q12 47 12 78q0 8 -1 15l-550 -140q-6 -40 -39 -66t-75 -26q-48 0 -82 33t-34 79t34 79t82 33q28 0 52 -12 t40 -32l686 152q-18 -106 -49 -219t-58 -230t-43 -233q-10 -71 -10 -141q0 -44 4 -87q40 -8 67 -39t27 -71q0 -46 -34 -79t-82 -33t-82 33t-34 79q0 48 36 80q0 34 1 75t3 77t4 64t2 36q-42 -38 -123 -106t-182 -137t-213 -123t-214 -66q-45 -5 -85 -5q-119 0 -205 43 q-116 58 -182 169t-86 262z" />
<glyph unicode="H" horiz-adv-x="1304" d="M56 98q0 28 14 52t36 40q4 80 7 205t7 272t7 306t6 309t3 280v220q-48 32 -48 92q0 46 34 79t82 33t82 -33t34 -79q0 -34 -19 -61t-49 -41q0 -86 1 -196t1 -221t-2 -211t-8 -166q36 10 105 15t152 7t174 2t171 -2t141 -4t89 -4l46 772q-34 12 -54 41t-20 65q0 46 34 79 t82 33t82 -33t34 -79q0 -62 -52 -94q-10 -112 -20 -282t-16 -377q-4 -155 -4 -325v-115q2 -233 14 -473q28 -14 45 -40t17 -58q0 -46 -34 -79t-82 -33t-82 33t-34 79q0 34 19 62t51 42l-26 664q-18 2 -88 6t-162 7t-195 5q-29 1 -57 1q-70 0 -132 -4q-86 -5 -142 -16 t-56 -31l-16 -646q28 -16 44 -41t16 -57q0 -46 -34 -79t-82 -33t-82 33t-34 79z" />
<glyph unicode="I" horiz-adv-x="1616" d="M40 112q0 46 34 79t82 33q32 0 57 -15t41 -39l454 18q14 354 21 600t8 413v104q0 97 -1 164q-2 101 -4 168t-3 112v18q0 37 3 81q-12 1 -38 1h-29q-49 -1 -111 -5t-128 -9t-116 -9q-14 -30 -43 -48t-63 -18q-48 0 -82 33t-34 79t34 79t82 33q30 0 55 -15t41 -37 q68 6 183 11t255 9t297 4t313 -4q16 24 42 39t58 15q48 0 82 -33t34 -79t-34 -79t-82 -33q-34 0 -62 17t-42 45l-492 4l8 -1656l468 -4q14 30 43 49t65 19q48 0 82 -33t34 -79t-34 -79t-82 -33q-62 0 -94 46l-1090 -28q-16 -22 -41 -36t-55 -14q-48 0 -82 33t-34 79z" />
<glyph unicode="J" horiz-adv-x="1168" d="M65 308q-3 25 -3 50q0 60 19 120q27 84 80 143t126 80q25 7 51 7q50 0 102 -26q18 6 36 6q48 0 82 -33t34 -79t-34 -79t-82 -33t-82 33t-34 79q0 26 8 44q-24 8 -56 -14t-61 -63t-47 -96q-14 -41 -14 -85q0 -14 2 -29q6 -59 41 -117t115 -104q64 -13 118 -13q94 0 160 39 q104 62 156 192t65 313q9 132 9 276q0 56 -1 113q-5 206 -17 422q-10 185 -10 354v56l-426 -28q-14 -30 -42 -48t-64 -18q-48 0 -82 33t-34 79t34 79t82 33q30 0 55 -14t41 -36q86 0 211 6t257 13t257 14t211 9q32 32 80 32t82 -33t34 -79t-34 -79t-82 -33q-46 0 -79 30 t-37 74l-344 -28q-1 -77 -1 -152q0 -189 7 -370q9 -231 9 -435v-40q-1 -221 -24 -399t-93 -293t-200 -158q-60 -20 -138 -20q-91 0 -206 27q-112 40 -169 116t-68 162z" />
<glyph unicode="K" horiz-adv-x="1296" d="M70 114q0 30 23 54t47 40q2 90 3 217q0 64 0.5 132t-0.5 141q-1 146 -4 301t-5 301t-5 274t-3 218q-46 32 -46 90q0 46 34 79t82 33t82 -33t34 -79q0 -32 -16 -58t-44 -40l-8 -704l700 740q-2 8 -5 26t-3 26q0 46 34 79t82 33t82 -33t34 -79t-34 -79t-82 -33q-18 0 -26 2 l-334 -384l440 -1188q48 0 82 -33t34 -79t-34 -79t-82 -33t-82 33t-34 79q0 42 28 74q-24 66 -62 167t-81 215t-89 233t-87 224t-74 184t-49 115l-358 -338l14 -750q20 -16 32 -39t12 -49q0 -46 -34 -79t-82 -33t-82 33t-34 79z" />
<glyph unicode="L" horiz-adv-x="1344" d="M56 116q0 32 17 58t45 42l36 1572q-22 16 -36 40t-14 52q0 46 34 79t82 33t82 -33t34 -79q0 -40 -24 -69t-60 -39q-6 -180 -11 -396t-8 -431t-4 -407t-1 -324q38 -20 52 -56h748q16 28 47 57t65 29q48 0 82 -33t34 -79t-34 -79t-82 -33q-34 0 -62 17t-42 45l-758 -10 q-14 -30 -42 -49t-64 -19q-48 0 -82 33t-34 79z" />
<glyph unicode="M" horiz-adv-x="1744" d="M50 1874q0 46 34 79t82 33t82 -33t34 -79q0 -50 -38 -82q12 -88 49 -195t90 -227t117 -246t128 -251t123 -245t105 -224q36 76 81 188t96 243t106 272t110 274t106 248t97 195q-22 32 -22 68q0 46 34 79t82 33t82 -33t34 -79q0 -28 -14 -52t-36 -40l24 -1616 q28 -14 45 -40t17 -58q0 -46 -34 -79t-82 -33t-82 33t-34 79q0 64 56 96q-2 70 -4 195t-4 276t-4 312t-4 303t-4 249t-2 149q-72 -170 -155 -355t-161 -366t-143 -347t-101 -294q26 -30 26 -70q0 -46 -34 -79t-82 -33t-82 33t-34 79q0 48 34 78q-26 48 -74 144t-106 216 t-119 251t-115 252t-95 219t-55 150l40 -1352q22 -16 37 -41t15 -53q0 -46 -34 -79t-82 -33t-82 33t-34 79q0 36 21 65t55 41q-2 104 -5 233t-7 269t-7 287t-7 288t-6 268t-4 231q-24 16 -39 40t-15 54z" />
<glyph unicode="N" horiz-adv-x="1432" d="M80 1880q0 46 34 79t82 33t82 -33t34 -79q0 -44 -28 -72l912 -1536l-56 1528q-28 16 -44 42t-16 58q0 46 34 79t82 33t82 -33t34 -79q0 -28 -28 -56t-48 -44l48 -1594q34 -10 58 -39t24 -67q0 -46 -34 -79t-82 -33t-82 33t-34 79q0 32 18 60l-924 1584q-4 -94 -5 -221 q0 -64 -0.5 -131.5t0.5 -138.5q1 -143 5 -291t8 -285t8 -253t8 -192q12 -8 27 -15t29 -18t22 -29t8 -48q-2 -46 -35 -79t-81 -33t-82 33t-34 79q0 60 48 92q6 96 6 220q0 46 -1 96q-3 184 -9 394t-9 430q-1 73 -1 145q0 143 4 279q-28 14 -46 41t-18 61z" />
<glyph unicode="O" horiz-adv-x="1726" d="M92 800q2 156 35 311t97 297t154 253t204 183t246 84q10 34 41 57t71 23q42 0 74 -26t40 -66q172 -24 293 -104t194 -196t103 -259q22 -107 23 -220q0 -37 -3 -75q-10 -152 -58 -304t-127 -286t-189 -240t-244 -167t-292 -67h-26q-146 0 -306 62q-116 72 -189 187 t-108 256q-33 133 -33 280v17zM187 831q-2 -33 -2 -64q0 -107 23 -207q30 -130 103 -244t201 -196q101 -35 198 -34q27 0 53 2q123 12 234 67t207 146t169 205t122 243t66 261q8 66 8.5 131t-8.5 129q-17 128 -76 239t-161 197t-256 134l-12 4l-12 4q-14 -28 -42 -46 t-62 -18q-36 0 -64 18t-42 48q-92 -22 -182 -89t-170 -167t-144 -225t-103 -261t-48 -277z" />
<glyph unicode="P" horiz-adv-x="1080" d="M48 1872q0 46 34 79t82 33q58 0 94 -46q21 1 44 0q45 0 96 -2q76 -4 176 -8q196 -18 309 -64t158 -107q34 -47 34 -101q0 -17 -3 -34q-14 -74 -69 -150t-143 -148t-191 -132t-214 -103t-211 -57q-2 -38 -2 -102t1 -140t4 -161t6 -166t7 -154t10 -125q26 -16 42 -41 t16 -55q0 -46 -34 -79t-82 -33t-82 33t-34 79q0 34 18 60t48 40l-50 1582q-28 14 -46 41t-18 61zM214 1628q0 -18 3 -55t6 -85t6 -99t6 -99t5 -85t4 -55q22 -4 46 -4q34 0 75 8q69 14 142 46t145 77t133 96t107 105t64 104q10 29 10 55q0 19 -5 37q-13 42 -69 70 q-50 22 -125 45t-155 38t-159 17h-14q-70 0 -123 -18q-58 -20 -88 -67q-20 -31 -20 -77q0 -25 6 -54z" />
<glyph unicode="Q" horiz-adv-x="1816" d="M57 880q-1 27 -1 55q0 158 44 313q52 182 168 345t304 279q170 106 326 117q25 2 48 2q129 0 242 -50q134 -59 241 -177t180 -269t109 -323q28 -135 28 -267q0 -37 -2 -74q-10 -169 -68 -322t-172 -267q12 -10 18 -24t12 -30t16 -32t30 -30q28 16 60 16q48 0 82 -33 t34 -79t-34 -79t-82 -33t-82 33t-34 79q0 20 4 28q-32 22 -58 49t-44 50t-28 39t-12 16q-238 -140 -440 -167q-67 -9 -130 -9q-125 0 -232 36q-160 54 -276 177t-179 284t-72 347zM180 800q10 -160 70 -277t149 -195t199 -119t224 -46q17 -1 34 -1q96 0 188 24 q108 28 192 86q20 20 19 43t-15 46t-36 47t-46 48q-6 -2 -13 -2h-13q-48 0 -82 33t-34 79t34 79t82 33t82 -33t34 -79q0 -32 -16 -58q38 -48 74 -89t50 -57q28 -14 58 6t58 59t54 91t46 102t32 90t14 56q3 58 3 113q0 212 -43 376q-54 207 -153 342t-230 199 q-125 61 -257 61h-12q-138 -3 -272 -73t-240 -204t-170 -329t-64 -451z" />
<glyph unicode="R" horiz-adv-x="1344" d="M46 1844q0 46 34 79t82 33q30 0 56 -15t42 -37q170 78 318 90q36 3 70 3q104 0 185 -28q107 -37 164 -115q47 -64 47 -147q0 -17 -2 -36q-12 -105 -101 -228t-273 -247q146 -150 240 -301t151 -280t84 -228t37 -147q44 -4 74 -36t30 -76q0 -46 -34 -79t-82 -33t-82 33 t-34 79q0 34 16 58q-12 102 -44 221t-90 243t-145 248t-209 238q-28 -12 -72 -32t-90 -39t-87 -33t-65 -16l20 -784q56 -32 56 -94q0 -46 -34 -79t-82 -33t-82 33t-34 79q0 32 16 57t42 39l-28 1488q-16 -4 -33 8t-31 30t-22 41t-8 43zM234 1724q2 -18 2 -68v-114v-134 t1 -129t4 -99t9 -42q230 84 372 173t213 175t80 162q2 15 2 30q0 58 -29 103q-36 57 -107 89q-67 30 -151 30h-11q-91 -2 -191 -43t-194 -133z" />
<glyph unicode="S" horiz-adv-x="1568" d="M66 144q0 46 34 79t82 33q42 0 74 -27t40 -67q69 -29 154 -30q19 0 39 2q109 8 226 47t231 102t207 139t158 157t83 155q6 24 6 46q0 47 -26 89q-38 61 -150 95q-88 26 -175 26t-173 -14t-172 -33t-173 -30q-60 -8 -120 -8q-27 0 -55 2q-88 5 -176 41q-74 68 -89 167 q-5 34 -5 69q0 67 19 139q29 109 94 219t154 202t193 156t210 82q33 6 66 5q71 0 140 -26q100 -39 180 -153q48 0 82 -33t34 -79t-34 -79t-82 -33t-82 33t-34 79q0 50 34 80q-34 40 -82 70t-88 38q-23 4 -47 4q-67 0 -140 -33q-99 -45 -191 -126t-168 -184t-116 -204 q-37 -94 -37 -175v-12q3 -86 71 -130q69 -10 135 -10q55 0 109 7q118 15 234 37t235 38q63 9 130 9q58 0 119 -7q152 -54 220 -135q69 -82 69 -180q0 -94 -56 -195q-57 -102 -154 -196t-224 -173t-268 -129t-285 -62q-35 -3 -68 -3q-107 0 -206 29q-32 -22 -70 -22 q-48 0 -82 33t-34 79z" />
<glyph unicode="T" horiz-adv-x="1256" d="M56 1852q0 46 34 79t82 33q34 0 61 -17t43 -45q80 -3 164 -3q42 0 86 1q130 2 262 7t262 9t250 4q16 28 43 44t61 16q48 0 82 -33t34 -79t-34 -79t-82 -33q-36 0 -65 19t-43 49l-492 -24l8 -1616q22 -16 35 -39t13 -51q0 -46 -34 -79t-82 -33t-82 33t-34 79q0 32 16 58 t44 40l12 1608q-32 8 -86 9h-28q-42 0 -88 -2q-62 -3 -123 -9t-109 -12q-32 -46 -94 -46q-48 0 -82 33t-34 79z" />
<glyph unicode="U" horiz-adv-x="1288" d="M58 1850q0 46 34 79t82 33t82 -33t34 -79q0 -58 -46 -90q-2 -60 -5 -155t-7 -203t-8 -220t-7 -209t-5 -169q-1 -36 -1 -61t1 -39q4 -152 46 -265t106 -184t145 -95q39 -12 78 -12q43 0 86 14q83 26 161 106t138 220q32 74 52 177t30 221t12 242q1 62 1 122t-1 119 q-2 117 -8 220t-12 177q-52 32 -52 94q0 46 34 79t82 33t82 -33t34 -79q0 -34 -17 -59t-45 -41q10 -66 20 -184t13 -264q1 -31 1 -63q0 -117 -9 -244q-11 -161 -43 -315t-90 -288t-152 -225t-227 -126q-59 -16 -127 -16q-86 0 -188 25q-108 80 -171 216t-89 340 q-20 156 -20 356q0 62 2 128q8 280 42 648q-30 14 -49 41t-19 61z" />
<glyph unicode="V" horiz-adv-x="1536" d="M48 1864q0 46 34 79t82 33t82 -33t34 -79q0 -34 -20 -64l536 -1472l486 1480q-34 30 -34 80q0 46 34 79t82 33t82 -33t34 -79q0 -44 -29 -75t-73 -37q-30 -78 -70 -200t-83 -266t-89 -301t-90 -303t-82 -273t-68 -213q40 -34 40 -84q0 -46 -34 -79t-82 -33t-82 33t-34 79 q0 34 22 66q-16 42 -59 143t-114 284t-171 458t-232 665q-44 4 -73 36t-29 76z" />
<glyph unicode="W" horiz-adv-x="1976" d="M8 1880q0 46 34 79t82 33t82 -33t34 -79q0 -36 -18 -60l450 -1516l212 774q-24 26 -24 70q0 46 34 79t82 33t82 -33t34 -79q0 -28 -13 -52t-35 -40q18 -82 48 -160t69 -165t85 -188t96 -229l368 1506q-38 32 -38 84q0 46 34 79t82 33t82 -33t34 -79q0 -44 -29 -76 t-73 -36l-358 -1568q32 -32 32 -76q0 -46 -34 -79t-82 -33t-82 33t-34 79t32 78q-20 52 -46 117t-54 136t-57 142t-54 134t-47 112t-34 75q-18 -36 -49 -124t-64 -195t-65 -216t-54 -185q28 -16 44 -41t16 -57q0 -46 -34 -79t-82 -33t-82 33t-34 79q0 40 24 68l-486 1576 q-46 2 -78 34t-32 78z" />
<glyph unicode="X" horiz-adv-x="1512" d="M74 1886q0 46 34 79t82 33t82 -33t34 -79q0 -26 -14 -54l476 -734l468 758q-4 10 -4 32q0 46 34 79t82 33t82 -33t34 -79t-34 -79t-82 -33h-8l-498 -792q130 -200 219 -337t147 -226t90 -136t47 -69t19 -25t8 -3q48 0 82 -33t34 -79t-34 -79t-82 -33t-82 33t-34 79 q0 10 -2 22t2 22l-488 726l-452 -742q10 -20 10 -42q0 -46 -34 -79t-82 -33t-82 33t-34 79t34 79t82 33h10l462 798q-148 192 -268 396t-252 408q-40 10 -64 40t-24 70z" />
<glyph unicode="Y" horiz-adv-x="1456" d="M20 1872q0 46 34 79t82 33t82 -33t34 -79v-6l604 -692l330 656q-22 28 -22 66q0 46 34 79t82 33t82 -33t34 -79q0 -44 -30 -76t-74 -36l-360 -712q0 -98 -2 -204t-5 -216t-4 -221v-44q0 -88 3 -171q34 -10 53 -39t19 -67q0 -46 -34 -79t-82 -33t-82 33t-34 79q0 58 48 90 l-28 872l-626 700q-30 -16 -55 -11t-43 22t-29 41t-11 48z" />
<glyph unicode="Z" horiz-adv-x="1568" d="M96 1792q0 46 34 79t82 33q10 0 17 -1t15 -3q73 9 153 9q46 0 94 -3q133 -8 270 -15q96 -5 189 -5q40 0 79 1q131 3 241 39q16 26 42 42t60 16q48 0 82 -33t34 -79t-34 -79t-82 -33q-38 0 -64 18l-1000 -1578q24 -26 26 -58q102 30 222 47t244 18h14q117 0 229 -16 q119 -17 217 -55q-2 6 -2 20q0 46 34 79t82 33t82 -33t34 -79t-34 -79t-82 -33q-22 0 -40 6q-84 18 -197 33t-249 17h-34q-121 0 -256 -12q-154 -14 -322 -52q-26 -16 -58 -16q-48 0 -82 33t-34 79q0 40 26 70t66 40q34 78 103 190t158 244t189 278t195 292t177 285t136 259 l-824 4v-2q0 -46 -34 -79t-82 -33t-82 33t-34 79z" />
<glyph unicode="[" horiz-adv-x="952" d="M128 1950q0 48 36 81t88 33q38 0 68 -18t46 -46l368 -26q34 40 92 40q52 0 88 -34t36 -80q0 -48 -36 -81t-88 -33q-38 0 -68 18t-46 48l-356 2q-8 -6 -10 -45t-1 -126t4 -229t6 -352t6 -495t3 -661l310 -16q16 24 43 40t61 16q52 0 88 -34t36 -80q0 -48 -36 -81t-88 -33 q-60 0 -96 42h-310q-16 -22 -43 -35t-59 -13q-52 0 -88 33t-36 81q0 40 26 70t66 40q6 118 8 269t0 319t-6 344t-10 345t-11 320t-9 269q-36 14 -59 43t-23 65z" />
<glyph unicode="\" horiz-adv-x="1264" d="M44 1830q0 46 34 79t82 33t82 -33t34 -79q0 -36 -24 -70l830 -1534q48 0 82 -33t34 -79t-34 -79t-82 -33t-82 33t-34 79q0 32 16 58l-836 1546q-44 4 -73 36t-29 76z" />
<glyph unicode="]" horiz-adv-x="952" d="M66 1854q0 46 34 79t82 33q52 0 86 -38l342 24q16 28 44 46t62 18q48 0 82 -33t34 -79q0 -36 -21 -65t-55 -41q-4 -116 -9 -266t-10 -316t-9 -340t-6 -340t0 -315t8 -265q38 -10 62 -39t24 -69q0 -46 -34 -79t-82 -33q-64 0 -96 48h-288q-32 -42 -90 -42q-48 0 -82 33 t-34 79t34 79t82 33q32 0 57 -15t41 -39l288 16q0 370 3 651t6 489t6 347t4 225t-2 124t-9 44l-332 -2q-14 -28 -43 -46t-63 -18q-48 0 -82 33t-34 79z" />
<glyph unicode="^" horiz-adv-x="976" d="M98 766q0 46 34 79t82 33h10q32 56 54 94t42 70t40 63t48 75q-22 28 -22 66q0 46 34 79t82 33t82 -33t34 -79q0 -38 -22 -66l214 -278h4q48 0 82 -33t34 -79t-34 -79t-82 -33t-82 33t-34 79q0 34 18 62l-212 276l-190 -306q16 -26 16 -56q0 -46 -34 -79t-82 -33t-82 33 t-34 79z" />
<glyph unicode="_" horiz-adv-x="1328" d="M92 128q0 46 34 79t82 33q34 0 61 -16t41 -44l718 -4q10 34 41 57t71 23q48 0 82 -33t34 -79t-34 -79t-82 -33q-60 0 -94 44l-746 -16q-34 -44 -92 -44q-48 0 -82 33t-34 79z" />
<glyph unicode="`" horiz-adv-x="672" d="M60 1508q0 46 34 79t82 33t82 -33t34 -79q0 -16 -2 -24l138 -100q32 28 76 28q48 0 82 -33t34 -79t-34 -79t-82 -33t-82 33t-34 79v13t2 13q-24 20 -36 29t-25 16t-32 16l-57 27q-28 -18 -64 -18q-48 0 -82 33t-34 79z" />
<glyph unicode="a" d="M41 311q-3 33 -3 66q0 78 15 161q21 118 68 233t111 203t142 140q66 44 137 44q12 0 24 -1q83 -9 170 -89t167 -256v192q-40 30 -40 84q0 46 33 77t79 31t79 -31t33 -77q0 -30 -15 -55t-41 -39l-40 -800q36 -10 60 -38t24 -66q0 -46 -33 -77t-79 -31t-79 31t-33 77 q0 40 26 70l4 184q-18 -36 -66 -89t-107 -105t-121 -93t-110 -51q-62 -14 -113 -14q-60 0 -107 19q-86 35 -131 113t-54 187zM151 319q19 -109 95 -187q42 -32 94 -33h5q50 0 104 20q57 21 113 60t107 90t92 110t67 117v200q-6 24 -22 65t-41 86t-60 86t-77 67 q-48 39 -100 39q-20 0 -41 -6q-75 -21 -143 -91t-120 -177t-72 -222q-10 -59 -11 -116q1 -55 10 -108z" />
<glyph unicode="b" horiz-adv-x="1040" d="M70 1884q0 46 33 77t79 31t79 -31t33 -77q0 -52 -42 -84q-22 -218 -24 -427q-1 -104 -1 -199.5t1 -181.5q116 108 225 132q43 9 83 9q62 0 116 -22q90 -37 158 -123t104 -195q35 -106 35 -223v-7q-1 -121 -47 -228t-142 -190t-252 -117q-8 -2 -39 -2t-66 1t-66 1h-39 q-2 -2 -4 -2q-30 -34 -82 -34q-46 0 -79 31t-33 77q0 58 48 90q-8 92 -9 220t-1 274t2 301q1 78 1 153.5t-1 148.5q-2 147 -7 279t-19 230q-20 16 -32 38t-12 50zM227 764q1 -52 4 -116t7 -134t9 -132t9 -113t8 -75q46 -22 58 -70q29 -6 60 -6q42 0 89 11q81 19 155 67 t132 123t79 171q10 44 10 91q0 57 -14 119q-25 114 -117 244q-34 46 -94 59q-28 6 -58 6q-35 0 -73 -8q-71 -15 -141 -56t-122 -101q-1 -19 -1 -48v-32z" />
<glyph unicode="c" horiz-adv-x="1016" d="M57 557q5 145 67 295q56 140 124 218t140 109q56 24 111 24q16 0 32 -2q71 -9 133 -41t109 -80t73 -96q36 -8 61 -37t25 -67q0 -46 -33 -77t-79 -31t-79 31t-33 77q0 32 14 54q-92 108 -179 125q-23 5 -46 5q-60 0 -112 -34q-71 -46 -122 -141t-74 -213q-17 -85 -17 -174 q0 -35 3 -71q9 -127 61 -235q26 -54 87 -80q55 -23 121 -23h15q75 3 154 33t141 88q-24 26 -24 68q0 46 33 77t79 31t79 -31t33 -77t-33 -77t-79 -31q-14 0 -22 2q-120 -132 -235 -175q-73 -27 -139 -27q-38 0 -74 9q-98 25 -172 108t-111 202q-33 105 -33 230q0 17 1 34z " />
<glyph unicode="d" horiz-adv-x="1032" d="M57 547q7 115 40 224t90 202t135 147t175 60q8 0 16 1q90 0 195 -61q12 8 14 32q1 12 1 35t-1 56q-2 67 -5 193q-2 76 -2 183q0 72 1 157q-44 4 -62 34t-18 74q0 46 33 77t79 31t79 -28t33 -80q0 -50 -40 -84q-3 -73 -3 -161q0 -44 1 -91q2 -142 9 -297t17 -313t21 -302 t21 -265t18 -199q28 -14 44 -39t16 -57q0 -46 -33 -77t-79 -31t-79 31t-33 77q0 28 12 49t32 37q-2 12 -5 28t-7 42q-160 -116 -281 -152q-73 -22 -133 -22q-40 0 -74 10q-86 24 -138 96t-74 170q-17 74 -17 158q0 27 2 55zM170 475v-14q0 -81 21 -148q23 -73 77 -113 q61 -26 115 -26q30 0 59 8q80 22 141 83t101 152t57 191q11 63 11 126q0 37 -4 73q-10 99 -48 177q-60 82 -123 101q-26 8 -51 8q-36 0 -70 -16q-58 -27 -110 -91t-90 -148t-61 -179t-25 -184z" />
<glyph unicode="e" horiz-adv-x="1144" d="M62 606q0 42 29 73t71 35q20 88 63 181t104 164t135 108q46 23 96 24q30 0 61 -9q83 -22 170 -116t173 -284q28 -14 46 -40t18 -58q0 -46 -33 -77t-79 -31q-22 0 -40 6q-56 -18 -129 -24t-153 -10t-163 -9t-161 -17q-7 -52 -7 -97q0 -64 15 -111q26 -80 78 -122t122 -52 q35 -5 70.5 -5t72.5 5q73 10 138 36t109 56v16q0 46 33 77t79 31t79 -31t33 -77t-33 -77t-79 -31q-44 0 -76 28q-80 -80 -170 -120t-177 -42h-10q-81 0 -155 30q-78 32 -136 96t-90 157q-27 78 -27 176q0 18 1 37q-34 10 -56 39t-22 65zM278 644l2 -2q56 0 122 4t135 10 t138 16t129 22q2 34 28 62q-50 124 -105 189t-112 83q-24 8 -47 8q-32 0 -63 -15q-53 -25 -98 -79t-79 -131t-50 -167z" />
<glyph unicode="f" horiz-adv-x="1010" d="M-28 860q0 46 33 77t79 31q26 0 47 -11t37 -27q32 0 64 -2t59 -4t46 -2t25 4q3 13 3 36.5t-3 58.5q-6 69 -9 162q-1 28 -1 57q0 69 5 146q7 110 38 218t93 204t172 162q24 2 46 2q90 0 154 -39q80 -49 128 -128t69 -174t23 -177q30 -12 49 -38t19 -60q0 -46 -33 -77 t-79 -31t-79 31t-33 77q0 34 19 61t49 39q-2 8 -3 15t-1 17q-62 220 -128 309q-61 82 -119 82q-5 0 -10 -1q-63 -8 -116 -95t-89 -220t-50 -293q-6 -66 -6 -131q0 -92 12 -183q8 -2 35 -4t62 -4t74 -3t73 -1q12 28 40 46t62 18q46 0 79 -31t33 -77t-33 -77t-79 -31t-80 30 q-12 -1 -26 -1q-20 0 -45 2q-41 3 -80 6t-71 5t-44 2l10 -644q34 -10 55 -38t21 -64q0 -46 -33 -77t-79 -31t-79 31t-33 77q0 32 11 61t39 41q1 20 1 44t-1 53q-2 57 -5 121t-8 129t-9 120t-7 94t-3 53q-11 2 -27 2q-21 0 -52 -3q-55 -5 -107 -9q-32 -44 -92 -44 q-46 0 -79 31t-33 77z" />
<glyph unicode="g" horiz-adv-x="1064" d="M53 616q17 104 62 197t114 164t155 101l-2 17t-5 40t-5 49t2 44v6q-36 10 -59 39t-23 67q0 42 30 73t74 35q12 20 24 -2q40 -6 68 -36t28 -70q0 -56 -46 -88q2 -44 6 -73t12 -75q58 14 110 14t98 -14q92 -28 156 -92t99 -155t38 -190v-18q0 -90 -27 -178 q-30 -97 -97 -173t-171 -121q-96 -41 -226 -41h-24l8 -208q170 71 323 71h4q155 -1 269 -53t178 -143q56 -80 56 -170q0 -13 -1 -26q-9 -105 -103 -215t-294 -198q-106 -47 -196 -47h-17q-97 5 -166 45t-102 105q-24 48 -24 97q0 18 3 36q12 68 74 130t188 96v8q0 46 33 77 t79 31t79 -31t33 -77t-33 -77t-79 -31q-36 0 -62 18q-82 -40 -122 -65t-55 -41t-15 -27t-2 -21q-6 -22 -6 -40q0 -41 30 -65q44 -35 122 -38h16q71 0 156 24q94 27 172 82t123 136q32 58 32 127q0 28 -5 58q-16 84 -77 127t-144 56q-41 7 -86 7t-93 -7q-96 -13 -180 -41 t-147 -67t-81 -77l-22 434q-112 36 -173 111t-81 170q-11 51 -11 105q0 46 8 94zM169 473q11 -67 48 -125t107 -92q14 32 17 68t3 70q-28 14 -44 40t-16 58q0 46 33 77t79 31t79 -31t33 -77q0 -56 -46 -88q-10 -38 -17 -75q-4 -20 -4 -40q0 -16 3 -33q27 -6 53 -6 q42 0 82 16q65 26 119 77t94 122t59 147q14 56 14 109q0 20 -2 40q-7 73 -45 129t-112 89q-66 29 -165 29h-25q12 -82 12 -137q0 -35 -5 -58q-13 -58 -37 -58h-1q-25 1 -51 56t-30 149q-58 -32 -107 -86t-80 -121t-45 -140q-8 -41 -8 -80q0 -31 5 -60z" />
<glyph unicode="h" horiz-adv-x="1096" d="M56 1876q0 46 33 77t79 31t79 -31t33 -77q0 -32 -9 -59t-37 -41l32 -768q122 110 218 151q76 32 138 32q17 0 33 -2q75 -11 131 -66t95 -137t63 -183t37 -205t16 -202q2 -59 2 -110q0 -34 -1 -66q28 -14 45 -39t17 -57q0 -46 -33 -77t-79 -31t-79 31t-33 77q0 64 54 92 q9 82 9 171v18q-1 99 -14 195t-37 181t-61 148t-87 98q-43 30 -95 30q-9 0 -18 -1q-63 -6 -140 -59t-167 -165q0 -10 -2 -55t-3 -107t-3 -134t-4 -135t-2 -110v-61q28 -14 46 -40t18 -58q0 -46 -33 -77t-79 -31t-79 31t-33 77q0 32 16 57t44 39q0 90 -2 206t-6 248t-7 275 t-7 284t-6 276t-2 251q-10 6 -23 15t-26 22t-22 31t-9 40z" />
<glyph unicode="i" horiz-adv-x="428" d="M100 1092q0 46 33 77t79 31t79 -31t33 -77q0 -58 -48 -90l22 -796q20 -14 33 -35t17 -45q6 -24 -8 -48q-12 -32 -40 -51t-64 -19q-46 0 -79 31t-33 77q0 30 15 55t41 39l-22 786q-58 28 -58 96zM124 1652q0 46 33 77t79 31t79 -31t33 -77t-33 -77t-79 -31t-79 31t-33 77z " />
<glyph unicode="j" horiz-adv-x="402" d="M-456 -554q0 46 33 77t79 31t79 -31t33 -77q0 -38 -24 -68q86 -76 145 -103q51 -24 104 -24q7 0 15 1q54 4 93 66t65 164t41 233t22 273t7 286t-5 270t-12 225t-15 151q-42 4 -69 31t-27 69q0 46 33 77t79 31t79 -31t33 -77q0 -48 -36 -80q14 -52 27 -154t21 -235t8 -288 t-9 -309t-29 -298t-55 -257t-85 -186t-118 -83q-22 -3 -45 -3q-20 0 -41 2q-46 5 -97 29t-109 68t-124 114q-40 6 -68 36t-28 70zM108 1540q0 46 33 77t79 31t79 -31t33 -77t-33 -77t-79 -31t-79 31t-33 77z" />
<glyph unicode="k" horiz-adv-x="1216" d="M64 1860q0 46 33 77t79 31t79 -31t33 -77q0 -34 -18 -60t-46 -38q-1 -67 -1 -135q0 -187 8 -383q11 -268 41 -524q80 36 141 77t104 82t73 81t50 74q-16 26 -16 58q0 46 33 77t79 31t79 -31t33 -77q0 -40 -26 -70t-66 -38q-22 -40 -68 -75t-88 -66t-67 -56t-7 -45 l488 -520q6 2 18 2q46 0 79 -31t33 -77t-33 -77t-79 -31t-79 31t-33 77q0 20 6 38l-490 498q-16 16 -41 1t-49 -43t-41 -59t-19 -47q0 -14 -2 -52t-5 -86t-5 -95t-2 -79q32 -10 52 -38t20 -62q0 -46 -33 -77t-79 -31t-79 31t-33 77q0 30 15 55t41 39q1 70 1 142 q0 126 -4 259q-7 209 -20 417t-30 409t-35 379q-24 26 -24 68z" />
<glyph unicode="l" horiz-adv-x="496" d="M156 1896q0 46 33 77t79 31t79 -31t33 -77q0 -56 -46 -88q-12 -78 -20 -198t-11 -263t-5 -301q-1 -105 -1 -209v-103q1 -154 1 -294v-246q40 -6 68 -36t28 -70q0 -46 -33 -77t-79 -31t-79 31t-33 77q0 50 38 82l12 1628q-28 12 -46 38t-18 60z" />
<glyph unicode="m" horiz-adv-x="1464" d="M68 1152q0 46 33 77t79 31t79 -31t33 -77q0 -32 -16 -57t-44 -39q0 -22 2 -37t6 -29t10 -27t14 -33q124 142 202 199q56 41 100 41q17 0 31 -6q53 -22 92 -119t83 -263q12 60 53 134t95 139t115 108t115 44h2q53 0 91 -54q39 -55 49 -185l24 -746q28 -12 47 -38t19 -60 q0 -46 -33 -77t-79 -31t-79 31t-33 77q0 30 15 54t39 38q-1 35 -1 79v46q1 73 2 154t3 164t3 155t2 125t1 77q-37 77 -83 77h-4q-49 -3 -100 -62t-99 -160t-84 -215t-55 -229q-13 -81 -13 -147q0 -28 2 -54q34 -12 54 -40t20 -62q0 -46 -33 -77t-79 -31t-79 31t-33 77 q0 58 48 90v128v141t-1 126t-1 83q-12 196 -56 280q-39 75 -91 75q-6 0 -13 -1q-60 -10 -128 -103t-130 -251l6 -488q28 -14 45 -39t17 -57q0 -46 -33 -77t-79 -31t-79 31t-33 77q0 56 46 88q0 178 -1 316t-3 241t-4 176t-4 121q-34 10 -54 38t-20 64z" />
<glyph unicode="n" horiz-adv-x="1104" d="M50 1072q0 46 33 77t79 31t79 -31t33 -77q0 -56 -46 -88l-8 -152q76 74 155 144t154 121t143 73q31 10 59 10q33 0 63 -14q54 -26 92 -108t52 -238q2 -40 8 -119t12 -171t13 -184t11 -154q28 -14 44 -39t16 -57q0 -46 -33 -77t-79 -31t-79 31t-33 77q0 60 52 92 q2 56 2 138t-8 183t-25 214t-45 233q-22 64 -67 75q-15 4 -31 4q-32 0 -70 -15q-56 -22 -118 -69t-116 -99t-93 -99t-51 -69q-14 -30 -22 -90t-10 -133q-1 -36 -1 -73.5t1 -75.5q2 -76 8 -138q26 -14 42 -39t16 -55q0 -46 -33 -77t-79 -31t-79 31t-33 77q0 32 16 57t44 39 q-1 57 -1 127v73q1 114 1 228v213t-2 155q-30 14 -48 40t-18 60z" />
<glyph unicode="o" d="M84 560q4 126 40 245t102 203q-6 18 -6 38q0 46 33 77t79 31q34 0 64 -20q100 33 187 33q30 0 57 -4q110 -15 193 -70t137 -143t76 -191q14 -67 14 -136q0 -38 -4 -76q-12 -109 -59 -209t-132 -181t-211 -127q-99 -33 -180 -33q-45 0 -84 10q-110 29 -179 110t-100 199 q-27 105 -27 215v29zM183 572v-8q0 -88 21 -165q22 -81 63 -148t96 -108t122 -49q13 -2 26 -1q55 0 113 27q168 98 247 218t90 237q2 23 2 46q0 92 -35 175q-44 104 -121 172t-173 90q-30 7 -60 7q-65 0 -130 -33q-4 -40 -36 -67t-76 -27h-8q-32 -36 -60 -81t-52 -103 q-28 -90 -29 -182z" />
<glyph unicode="p" horiz-adv-x="1072" d="M76 1116q0 46 33 77t79 31t79 -31t33 -77q0 -32 -16 -57t-44 -39l14 -100q146 130 261 189t201 61h7q82 0 139 -42q60 -44 93 -120t42 -174q4 -40 4 -81q0 -60 -8 -121q-13 -104 -48 -206t-90 -185t-128 -139t-163 -68q-40 -4 -78 -8q-22 -2 -43 -2q-16 0 -31 1 q-36 3 -70 16t-66 41q2 -98 4 -166t4 -119t5 -91t5 -81t5 -91t5 -120q24 -14 39 -38t15 -54q0 -46 -33 -77t-79 -31t-79 31t-33 77q0 24 21 44t37 36l-50 1626q-20 16 -43 38t-23 50zM265 375q11 -123 75 -231q50 -15 97 -15q54 0 104 20q93 37 164 115t119 184t68 213 q13 69 13 132q0 35 -4 68q-11 93 -57 145q-43 49 -122 49h-9q-85 -3 -211 -87q-76 -52 -135 -146t-86 -209q-19 -82 -19 -167q0 -35 3 -71z" />
<glyph unicode="q" horiz-adv-x="1056" d="M68 394q-1 15 -1 31q0 98 22 202q25 121 74 228t120 188t160 114q50 18 104 18q43 0 89 -11q104 -26 220 -136q8 32 8 44t-4 38q-28 12 -46 38t-18 60q0 46 33 77t79 31t79 -31t33 -77q0 -60 -52 -92q-4 -214 -10 -439t-10 -446t-5 -430v-83q0 -162 3 -308q40 -34 40 -84 q0 -46 -33 -77t-79 -31t-79 31t-33 77q0 34 26 62t58 40q0 96 1 166t3 125t4 102t2 96t-3 107t-9 136q-58 -42 -144 -76t-177 -52q-82 -16 -158 -16h-17q-84 2 -136 30q-70 50 -105 143t-39 205zM167 492v-19q0 -84 23 -160q26 -85 86 -145q52 -52 142 -56h21q79 0 158 26 q89 30 156 86t73 126q0 10 3 51t5 96t4 119t4 119t2 96v51q-82 106 -164 145q-63 30 -121 30q-18 0 -35 -3q-74 -12 -138 -66t-112 -132t-76 -174t-31 -190z" />
<glyph unicode="r" d="M86 1088q0 46 33 77t79 31t79 -31t33 -77q0 -62 -52 -92q6 -28 15 -58t19 -64q44 76 112 141t146 110t161 65q46 11 89 12q34 0 66 -8q72 -16 128 -72t82 -162q7 -42 7 -79q0 -51 -13 -93q-22 -72 -64 -115t-96 -60q-33 -10 -64 -10q-20 0 -41 4q-51 11 -92 47t-53 98 q-40 0 -61 35t-21 77t26 77t80 35q46 0 79 -31t33 -77q0 -34 -17 -59t-45 -39q38 -60 85 -72q15 -4 30 -4q30 0 57 17q40 25 66 78q24 49 24 111v10q-2 58 -34 104t-84 70q-45 21 -102 21q-10 0 -19 -1q-69 -4 -147 -47t-160 -131t-158 -230q3 -56 3 -101q0 -23 -1 -43 q-2 -60 -5 -115t-4 -112v-17q0 -51 5 -116q34 -10 58 -38t24 -66q0 -46 -33 -77t-79 -31t-79 31t-33 77q0 60 48 88q0 72 -2 167t-6 202t-9 220t-11 219q-36 10 -59 38t-23 66z" />
<glyph unicode="s" horiz-adv-x="1080" d="M52 96q0 46 33 77t79 31t79 -31t33 -77v-10q21 -2 47 -2q32 0 71 3q70 5 145 23t149 47t131 75t89 107q26 49 26 110q0 15 -2 31q-28 5 -60 5t-68 -5q-72 -10 -148 -29t-152 -41t-143 -33q-49 -8 -91 -8q-15 0 -29 1q-53 4 -81 38t-28 103t38 185q38 106 92 201t115 164 t127 104q48 26 95 25q17 0 34 -3q63 -13 119 -82t98 -207q42 -4 71 -35t29 -73q0 -46 -33 -77t-79 -31t-79 31t-33 77q0 50 38 82q-12 60 -37 118t-69 79q-17 8 -38 8q-33 0 -74 -20q-68 -33 -168 -153q-32 -38 -62 -87t-50 -103t-28 -111q-3 -21 -3 -41q0 -35 9 -66 q0 -16 49 -9t125 23t168 36t178 27q33 3 64 3q48 0 90 -7q68 -11 96 -55q15 -24 16 -61q0 -30 -11 -68q-23 -85 -119 -225q-34 -48 -116 -84t-182 -57t-202 -25q-23 -1 -44 -1q-74 0 -130 11q-28 -16 -62 -16q-46 0 -79 31t-33 77z" />
<glyph unicode="t" horiz-adv-x="800" d="M-120 1362q0 46 33 77t79 31q34 0 60 -17t40 -45l242 20l-22 370q-34 10 -55 39t-21 65q0 46 33 77t79 31t79 -31t33 -77q0 -30 -15 -55t-41 -39q6 -138 18 -219t16 -139l252 4q36 40 88 40q46 0 79 -31t33 -77t-33 -77t-79 -31q-40 0 -70 23t-40 59l-230 -30 q0 -22 1 -99t2 -185t3 -235t5 -248t4 -224t3 -165q28 -14 44 -39t16 -57q0 -46 -33 -77t-79 -31t-79 31t-33 77q0 32 16 57t44 39q0 70 1 169t1 211t-1 228t-5 221t-11 190t-19 137q-32 10 -87 10t-135 -16q-12 -32 -40 -51t-64 -19q-46 0 -79 31t-33 77z" />
<glyph unicode="u" horiz-adv-x="1064" d="M64 1092q0 46 33 77t79 31t79 -31t33 -77q0 -42 -29 -72t-69 -36q-14 -96 -15 -204v-18q0 -99 10 -193q11 -103 34 -194t55 -151t74 -82q16 -8 34 -8q28 0 58 21q50 35 107 134t121 279q12 82 26 191t22 249q-58 28 -58 96q0 46 33 77t79 31t79 -31t33 -77q0 -48 -38 -80 q-8 -134 -8 -231t7 -169t19 -124t24 -95t25 -84t21 -89q32 -12 52 -39t20 -61q0 -46 -33 -77t-79 -31t-79 31t-33 77q0 48 36 80q-6 32 -9 62t-7 66t-13 83t-29 115q-20 -84 -60 -174t-91 -165t-110 -126t-116 -59q-9 -1 -17 -1q-48 0 -93 37q-53 44 -92 159t-61 311 q-19 166 -19 403q0 43 1 89q-36 32 -36 80z" />
<glyph unicode="v" horiz-adv-x="1000" d="M52 1068q0 46 33 77t79 31t79 -31t33 -77q0 -22 -8 -40t-20 -32q28 -82 75 -197t96 -229t91 -207t62 -131q8 28 36 106t64 183t73 226t65 237q-28 14 -39 40t-11 58q0 46 33 77t79 31t79 -31t33 -77q0 -36 -21 -64t-53 -38l-252 -814q20 -30 20 -62q0 -46 -33 -77 t-79 -31t-79 31t-33 77q0 38 24 66l-336 792q-40 8 -65 37t-25 69z" />
<glyph unicode="w" horiz-adv-x="1648" d="M44 1060q0 46 33 77t79 31t79 -31t33 -77q0 -44 -30 -74l318 -824l4 2q30 82 60 180t55 201t45 207t28 200q-32 28 -32 76q0 46 33 77t79 31t79 -31t33 -77q0 -56 -46 -88q22 -72 47 -167t54 -200t64 -212t77 -201q38 198 79 337t79 238t69 167t49 122q-24 26 -24 68 q0 46 33 77t79 31t79 -31t33 -77q0 -36 -22 -65t-56 -39q-12 -48 -29 -90t-38 -89t-46 -105t-55 -139t-64 -190t-72 -259q22 -28 22 -64q0 -46 -33 -77t-79 -31t-79 31t-33 77q0 24 8 40l-192 578q-2 -14 -12 -53t-26 -93t-34 -117t-35 -123t-33 -113t-24 -87q2 -8 3 -14 t1 -14q0 -46 -33 -77t-79 -31t-79 31t-33 77q0 24 8 40q-18 54 -44 123t-56 146t-61 158t-61 158t-56 146t-46 125q-42 4 -71 35t-29 73z" />
<glyph unicode="x" horiz-adv-x="1096" d="M84 124q0 46 33 77t79 31q12 0 18 -2q32 48 73 106t78 114t68 103t43 73q0 2 -29 38t-72 88t-91 112t-86 112q-46 2 -76 33t-30 75q0 46 33 77t79 31t79 -31t33 -77q0 -30 -12 -50q30 -48 65 -97t70 -91t68 -75t57 -51l194 334q-18 26 -18 62q0 46 33 77t79 31t79 -31 t33 -77q0 -44 -31 -75t-77 -33q-28 -56 -71 -119t-81 -120t-60 -100q-13 -26 -13 -43q0 -11 5 -18l280 -384q20 4 30 4q46 0 79 -31t33 -77t-33 -77t-79 -31t-79 31t-33 77q0 12 4 32l-282 384q-16 -20 -50 -65t-74 -98t-79 -105t-63 -86q18 -28 18 -58q0 -46 -33 -77 t-79 -31t-79 31t-33 77z" />
<glyph unicode="y" horiz-adv-x="1312" d="M28 1004q0 46 33 77t79 31t78 -30t34 -76l608 -894l196 900q-42 32 -42 86q0 46 33 77t79 31t79 -31t33 -77q0 -34 -18 -60t-48 -38l-366 -1662q10 -24 10 -46q0 -46 -33 -77t-79 -31t-79 31t-33 77q0 36 20 64t54 38l130 588q-16 22 -57 87t-97 152t-121 188t-127 196 t-118 174t-92 125q-18 -8 -44 -8q-46 0 -79 31t-33 77z" />
<glyph unicode="z" horiz-adv-x="1160" d="M60 1076q0 46 33 77t79 31q60 0 92 -48l572 -10q16 22 41 36t55 14q46 0 79 -31t33 -77t-33 -77t-79 -31q-34 0 -68 20l-532 -836h544q14 28 42 47t62 19q46 0 79 -31t33 -77t-33 -77t-79 -31q-44 0 -76 28q-74 4 -154 11t-162 9q-27 1 -55 1q-55 0 -111 -3 q-84 -4 -164 -22q-32 -32 -78 -32t-79 31t-33 77t33 77t79 31q12 0 32 -4l536 834q-86 2 -139 7t-98 7q-22 1 -46.5 1t-51.5 -1q-53 -2 -139 -14q-14 -28 -41 -46t-61 -18q-46 0 -79 31t-33 77z" />
<glyph unicode="{" horiz-adv-x="1008" d="M108 574q92 6 185 35t171 81t135 127t77 175q12 62 -29 96t-109 57t-148 46t-144 65t-98 113t-10 189q12 58 59 126t115 128t147 106t154 62t139 -5t100 -93q4 -4 7 -5t7 -5q56 -32 56 -96q0 -46 -34 -79t-82 -33t-82 33t-34 79q0 36 20 64t54 40q-30 36 -84 34t-117 -31 t-126 -80t-112 -115t-77 -136t-20 -142q20 -56 73 -91t118 -60t135 -45t128 -45t94 -62t32 -95t-55 -143t-167 -207q80 -34 100 -74t0 -89t-66 -108t-98 -130t-97 -156t-61 -185q-12 -106 31 -170t112 -93t149 -28t140 27q-8 16 -8 44q0 46 34 79t82 33t82 -33t34 -79 t-34 -79t-82 -33q-186 -58 -315 -42t-203 81t-96 169t6 224t102 244t192 230q16 50 -17 60t-91 0t-129 -29t-130 -27t-94 5t-21 71z" />
<glyph unicode="|" horiz-adv-x="520" d="M160 1872q0 46 34 79t82 33t82 -33t34 -79q0 -28 -12 -50t-32 -38v-1576q34 -12 55 -40t21 -64q0 -46 -34 -79t-82 -33t-82 33t-34 79q0 62 52 94v1566q-36 10 -60 39t-24 69z" />
<glyph unicode="}" horiz-adv-x="1064" d="M-6 -428q0 50 35 84t87 34t87 -34t35 -84q0 -28 -6 -46q64 -26 149 -28t158 29t118 98t33 179q-18 104 -65 193t-102 163t-105 136t-70 113t0 93t106 78q-124 128 -179 218t-58 151t35 99t99 65t136 48t145 47t125 63t77 95q8 74 -21 149t-81 142t-119 121t-133 84 t-124 31t-90 -35q34 -12 56 -41t22 -69q0 -48 -36 -83t-88 -35t-87 35t-35 83q0 66 58 102q4 4 7 5t7 5q38 76 107 98t149 5t164 -66t156 -112t123 -133t63 -132q26 -124 -10 -198t-105 -119t-153 -69t-157 -48t-117 -59t-30 -99q20 -104 80 -183t143 -134t182 -85t197 -36 q14 -60 -22 -75t-99 -6t-138 29t-137 31t-97 0t-19 -65q126 -110 205 -240t108 -256t6 -235t-102 -177t-216 -84t-335 44q-52 0 -87 34t-35 82z" />
<glyph unicode="~" horiz-adv-x="1256" d="M72 774q0 46 34 79t82 33h2q80 126 144 187t117 76t96 -8t79 -66t68 -97t62 -100t61 -78t65 -29t74 47t90 150q-58 32 -58 98q0 46 34 79t82 33t82 -33t34 -79q0 -38 -23 -67t-57 -39q-18 -108 -62 -164t-98 -92q-74 -30 -129 -17t-99 50t-79 87t-66 97t-63 79t-68 32 q-28 6 -52 -11t-47 -48t-44 -71t-41 -78q12 -22 12 -50q0 -46 -34 -79t-82 -33t-82 33t-34 79z" />
<glyph unicode="&#xa1;" horiz-adv-x="400" d="M79 79q0 -45 35 -76.5t85 -31.5q49 0 84.5 31.5t35.5 76.5q0 32 -20 58t-51 40q2 55 2 149.5v204t-1 225.5t-1 218t-1 179t1 108q33 11 54 38t21 60q0 44 -35 75.5t-85 31.5t-85 -31.5t-35 -75.5q0 -56 50 -87q8 -271 4 -554.5t0 -546.5q-58 -31 -58 -92zM87 1799 q0 -44 35 -76t85 -32t85 32t35 76t-35 76t-85 32t-85 -32t-35 -76z" />
<glyph unicode="&#xa2;" horiz-adv-x="1024" d="M80 705q0 159 68 325q68 172 153 250t175 94v56q-36 10 -60 39t-24 69q0 46 34 79t82 33t82 -33t34 -79q0 -28 -12 -50t-32 -38v-76q48 -8 93 -30t83 -51t67 -63t47 -68q36 -8 61 -37t25 -67q0 -46 -33 -77t-79 -31t-79 31t-33 77q0 32 14 54q-84 96 -166 120l6 -946 q52 16 101 41t91 65q-24 26 -24 68q0 46 33 77t79 31t79 -31t33 -77t-33 -77t-79 -31q-14 0 -22 2q-66 -74 -131 -118t-127 -64l2 -130q34 -12 55 -40t21 -64q0 -46 -34 -79t-82 -33t-82 33t-34 79q0 62 52 94l-2 120q-118 -4 -210 71t-142 199t-50 283zM196 636 q6 -142 64 -262q26 -56 86 -82t136 -22l-6 968q-88 -22 -154 -114t-99 -219t-27 -269z" />
<glyph unicode="&#xa3;" horiz-adv-x="1544" d="M56 104q0 46 34 79t82 33q32 0 54 -14q16 42 41 103t52 130t56 143t54 144t44 129t27 101q-42 4 -69 4t-46 -2t-38 -5t-47 -5q-32 -58 -102 -58q-48 0 -82 33t-34 79t34 79t82 33q58 0 94 -46l232 -4q62 218 138 378t156 268t160 168t152 79t133 1t101 -64t57 -118 t1 -162q42 -32 42 -86q0 -46 -34 -79t-82 -33t-82 33t-34 79q0 40 24 69t60 39q12 110 -19 160t-87 47t-130 -57t-149 -152t-144 -239t-115 -319h180q16 22 41 35t55 13q48 0 82 -33t34 -79t-34 -79t-82 -33q-70 0 -102 56h-214q-18 -58 -54 -149t-77 -192t-79 -203 t-58 -184q0 -2 30 -11t80 -22t113 -28t128 -29t126 -26t109 -18q74 -18 143 -13t123 36t85 88t31 145q-40 8 -66 39t-26 71q0 46 34 79t82 33t82 -33t34 -79q0 -40 -26 -72q4 -60 -21 -138t-82 -142t-147 -98t-216 -6q-26 4 -79 12t-121 20t-142 25t-142 25t-122 22t-80 16 l-6 -6v-10q0 -46 -34 -79t-82 -33t-82 33t-34 79z" />
<glyph unicode="&#xa8;" horiz-adv-x="760" d="M74 1328q0 46 34 79t82 33t82 -33t34 -79t-34 -79t-82 -33t-82 33t-34 79zM432 1328q0 46 34 79t82 33t82 -33t34 -79t-34 -79t-82 -33t-82 33t-34 79z" />
<glyph unicode="&#xad;" horiz-adv-x="1168" d="M104 620q0 46 34 79t82 33q52 0 88 -40q72 -2 138 -2t135 2t145 5t166 7q14 28 42 45t62 17q48 0 82 -33t34 -79t-34 -79t-82 -33q-54 0 -88 38q-4 0 4 1t5 1h-27t-89 -3t-181 -9t-306 -16q-36 -46 -94 -46q-48 0 -82 33t-34 79z" />
<glyph unicode="&#xaf;" horiz-adv-x="1096" d="M32 1364q0 46 34 79t82 33q52 0 88 -40q72 -2 138 -2t135 2t145 5t166 7q14 28 42 45t62 17q48 0 82 -33t34 -79t-34 -79t-82 -33q-54 0 -88 38q-4 0 4 1t5 1h-27t-89 -3t-181 -9t-306 -16q-36 -46 -94 -46q-48 0 -82 33t-34 79z" />
<glyph unicode="&#xb4;" horiz-adv-x="672" d="M84 1348q0 46 33 79t79 33t74 -28l134 100q-2 8 -2 24q0 46 34 79t80 33t79 -33t33 -79t-33 -79t-79 -33q-38 0 -62 18q-36 -18 -55 -27t-31 -16t-24 -16t-36 -29q2 -6 2 -13v-13q0 -46 -34 -79t-80 -33t-79 33t-33 79z" />
<glyph unicode="&#xb8;" horiz-adv-x="872" d="M124 -496q0 46 33 77t79 31t79 -31t33 -77v-10q72 -6 138 -6t114 25t72 88t12 183q-62 32 -126 30t-124 -12t-111 -17t-85 13t-46 78t4 180q60 22 81 9t24 -43t-2 -69t1 -65q18 -14 68 -4t112 21t127 10t112 -36t68 -117t-5 -234q-10 -58 -60 -89t-120 -41t-151 -5 t-153 19q-28 -16 -62 -16q-46 0 -79 31t-33 77z" />
<glyph unicode="&#xbf;" horiz-adv-x="1272" d="M111.5 425q-6.5 87 60.5 166t217.5 140t403.5 87v460q-36 10 -61.5 39t-25.5 67q0 46 36 79t88 33q51 0 87 -33t36 -79q0 -48 -38 -80v-576q-224 -18 -365.5 -60t-214 -97t-84.5 -117t23.5 -119t111 -104t175.5 -72t218.5 -22t239.5 45q-6 16 -6 34q0 46 36 79t88 33 q51 0 87 -33t36 -79t-36 -79t-87 -33q-18 0 -26 2q-134 -76 -275 -91t-267.5 13t-229 90t-162 141t-66 166zM706 1848q0 46 36 79t88 33q51 0 87 -33t36 -79t-36 -79t-87 -33q-52 0 -88 33t-36 79z" />
<glyph unicode="&#xc0;" horiz-adv-x="1392" d="M32 120q0 40 25 69t63 39q132 386 225 655t158 449t106 287t69 171q-22 28 -22 66q0 46 34 79t82 33t82 -33t34 -79q0 -50 -42 -86q88 -340 157 -595t120 -440t86 -309t55 -198q38 -10 63 -39t25 -69q0 -46 -34 -79t-82 -33t-82 33t-34 79q0 50 38 82q-14 56 -33 126 t-40 143t-43 143t-41 128t-33 99t-20 55l-492 -64q-6 -12 -20 -49t-35 -90t-45 -117t-49 -129t-49 -127t-42 -110q22 -16 35 -39t13 -51q0 -46 -34 -79t-82 -33t-82 33t-34 79zM468 944q46 0 109 6t130 15t130 19t111 16l-184 704q-10 -14 -32 -66t-51 -124t-61 -157 t-62 -165t-54 -147t-36 -101zM504 2312q0 46 34 79t82 33t82 -33t34 -79q0 -16 -2 -24l138 -100q32 28 76 28q48 0 82 -33t34 -79t-34 -79t-82 -33t-82 33t-34 79v13t2 13q-24 20 -36 29t-25 16t-32 16l-57 27q-28 -18 -64 -18q-48 0 -82 33t-34 79z" />
<glyph unicode="&#xc1;" horiz-adv-x="1392" d="M32 120q0 40 25 69t63 39q132 386 225 655t158 449t106 287t69 171q-22 28 -22 66q0 46 34 79t82 33t82 -33t34 -79q0 -50 -42 -86q88 -340 157 -595t120 -440t86 -309t55 -198q38 -10 63 -39t25 -69q0 -46 -34 -79t-82 -33t-82 33t-34 79q0 50 38 82q-14 56 -33 126 t-40 143t-43 143t-41 128t-33 99t-20 55l-492 -64q-6 -12 -20 -49t-35 -90t-45 -117t-49 -129t-49 -127t-42 -110q22 -16 35 -39t13 -51q0 -46 -34 -79t-82 -33t-82 33t-34 79zM424 2160q0 46 33 79t79 33t74 -28l134 100q-2 8 -2 24q0 46 34 79t80 33t79 -33t33 -79 t-33 -79t-79 -33q-38 0 -62 18q-36 -18 -55 -27t-31 -16t-24 -16t-36 -29q2 -6 2 -13v-13q0 -46 -34 -79t-80 -33t-79 33t-33 79zM468 944q46 0 109 6t130 15t130 19t111 16l-184 704q-10 -14 -32 -66t-51 -124t-61 -157t-62 -165t-54 -147t-36 -101z" />
<glyph unicode="&#xc2;" horiz-adv-x="1392" d="M32 120q0 40 25 69t63 39q132 386 225 655t158 449t106 287t69 171q-22 28 -22 66q0 46 34 79t82 33t82 -33t34 -79q0 -50 -42 -86q88 -340 157 -595t120 -440t86 -309t55 -198q38 -10 63 -39t25 -69q0 -46 -34 -79t-82 -33t-82 33t-34 79q0 50 38 82q-14 56 -33 126 t-40 143t-43 143t-41 128t-33 99t-20 55l-492 -64q-6 -12 -20 -49t-35 -90t-45 -117t-49 -129t-49 -127t-42 -110q22 -16 35 -39t13 -51q0 -46 -34 -79t-82 -33t-82 33t-34 79zM280 2130q0 46 34 79t82 33h10q32 56 54 94t42 70t40 63t48 75q-22 28 -22 66q0 46 34 79t82 33 t82 -33t34 -79q0 -38 -22 -66l214 -278h4q48 0 82 -33t34 -79t-34 -79t-82 -33t-82 33t-34 79q0 34 18 62l-212 276l-190 -306q16 -26 16 -56q0 -46 -34 -79t-82 -33t-82 33t-34 79zM468 944q46 0 109 6t130 15t130 19t111 16l-184 704q-10 -14 -32 -66t-51 -124t-61 -157 t-62 -165t-54 -147t-36 -101z" />
<glyph unicode="&#xc3;" horiz-adv-x="1392" d="M32 120q0 40 25 69t63 39q132 386 225 655t158 449t106 287t69 171q-22 28 -22 66q0 46 34 79t82 33t82 -33t34 -79q0 -50 -42 -86q88 -340 157 -595t120 -440t86 -309t55 -198q38 -10 63 -39t25 -69q0 -46 -34 -79t-82 -33t-82 33t-34 79q0 50 38 82q-14 56 -33 126 t-40 143t-43 143t-41 128t-33 99t-20 55l-492 -64q-6 -12 -20 -49t-35 -90t-45 -117t-49 -129t-49 -127t-42 -110q22 -16 35 -39t13 -51q0 -46 -34 -79t-82 -33t-82 33t-34 79zM226 2152q0 46 34 79t82 33h2q80 126 144 187t117 76t96 -8t79 -66t68 -96t62 -100t61 -79 t65 -29t74 47t90 150q-58 32 -58 98q0 46 34 79t82 33t82 -33t34 -79q0 -38 -23 -67t-57 -39q-18 -108 -62 -164t-98 -92q-74 -30 -129 -17t-99 50t-79 87t-66 97t-63 79t-68 32q-28 6 -52 -11t-47 -48t-44 -71t-41 -78q12 -22 12 -50q0 -46 -34 -79t-82 -33t-82 33t-34 79z M468 944q46 0 109 6t130 15t130 19t111 16l-184 704q-10 -14 -32 -66t-51 -124t-61 -157t-62 -165t-54 -147t-36 -101z" />
<glyph unicode="&#xc4;" horiz-adv-x="1392" d="M32 120q0 40 25 69t63 39q132 386 225 655t158 449t106 287t69 171q-22 28 -22 66q0 46 34 79t82 33t82 -33t34 -79q0 -50 -42 -86q88 -340 157 -595t120 -440t86 -309t55 -198q38 -10 63 -39t25 -69q0 -46 -34 -79t-82 -33t-82 33t-34 79q0 50 38 82q-14 56 -33 126 t-40 143t-43 143t-41 128t-33 99t-20 55l-492 -64q-6 -12 -20 -49t-35 -90t-45 -117t-49 -129t-49 -127t-42 -110q22 -16 35 -39t13 -51q0 -46 -34 -79t-82 -33t-82 33t-34 79zM400 2140q0 46 34 79t82 33t82 -33t34 -79t-34 -79t-82 -33t-82 33t-34 79zM468 944q46 0 109 6 t130 15t130 19t111 16l-184 704q-10 -14 -32 -66t-51 -124t-61 -157t-62 -165t-54 -147t-36 -101zM758 2140q0 46 34 79t82 33t82 -33t34 -79t-34 -79t-82 -33t-82 33t-34 79z" />
<glyph unicode="&#xc5;" horiz-adv-x="1392" d="M32 120q0 40 25 69t63 39q132 386 225 655t158 449t106 287t69 171q-22 28 -22 66q0 46 34 79t82 33t82 -33t34 -79q0 -50 -42 -86q88 -340 157 -595t120 -440t86 -309t55 -198q38 -10 63 -39t25 -69q0 -46 -34 -79t-82 -33t-82 33t-34 79q0 50 38 82q-14 56 -33 126 t-40 143t-43 143t-41 128t-33 99t-20 55l-492 -64q-6 -12 -20 -49t-35 -90t-45 -117t-49 -129t-49 -127t-42 -110q22 -16 35 -39t13 -51q0 -46 -34 -79t-82 -33t-82 33t-34 79zM368 2022q26 98 128 230q-6 18 -6 38q0 46 33 77t79 31q34 0 64 -20q114 40 206 43t156 -22 t98 -70t32 -100t-42 -114t-122 -111q-246 -114 -392 -139t-203 17t-31 140zM468 944q46 0 109 6t130 15t130 19t111 16l-184 704q-10 -14 -32 -66t-51 -124t-61 -157t-62 -165t-54 -147t-36 -101zM486 2043q-20 -53 19 -71t131 2t228 78q98 52 136 95t34 74t-41 50t-86 27 t-102 2t-91 -24q-4 -40 -36 -67t-76 -27h-8q-88 -86 -108 -139z" />
<glyph unicode="&#xc6;" horiz-adv-x="2576" d="M100 128q12 40 47 69t75 37q252 386 429 653t297 446t195 286t123 171q-14 30 -2 66q8 32 38 62q20 22 54 36q30 12 60 12q52 0 76 -40q232 10 413 1t299 1q16 22 42 36t56 14q48 0 82 -33t34 -79t-34 -79t-82 -33q-70 0 -102 58q-94 -8 -209 -7t-220 2t-183 -4t-98 -25 l26 -764l584 10q16 28 42 44t60 16q48 0 82 -33t34 -79t-34 -79t-82 -33q-60 0 -92 44l-594 -24l-8 -672q54 -6 148 -14t203 -12t221 -5t200 5q14 30 43 40t65 10q48 0 82 -33t34 -79t-34 -79t-82 -33q-40 0 -70 19t-42 53h-742q-16 -32 -60 -49t-88 -12t-71 34t-7 89 q16 50 64 82q6 86 5 190t-5 199t-9 166t-7 93l-612 -38q-12 -18 -63 -89t-116 -165t-134 -193t-119 -171q16 -16 23 -39t-3 -51q-16 -46 -60 -79t-92 -33q-48 2 -72 35t-8 79zM792 946q46 0 124 9t163 20t165 23t128 18l-8 704q-14 -14 -55 -67t-97 -127t-120 -161 t-123 -168t-107 -149t-70 -102z" />
<glyph unicode="&#xc7;" horiz-adv-x="1414" d="M98 861q8 175 43 345t94 325t132 269t159 178t177 52t184 -109t179 -305h2q48 0 82 -33t34 -79t-34 -79t-82 -33t-82 33t-34 79q0 40 24 70q-48 178 -111 262t-134 92t-144 -50t-139 -163t-120 -248t-89 -304t-44 -333t17 -334q34 -158 101 -243t154 -114t185 -11t192 66 t178 116t144 142q-22 32 -22 68q0 46 34 79t82 33t82 -33t34 -79t-30 -77t-76 -35q-68 -80 -156 -159t-199 -136t-247 -79t-298 14q-106 72 -168 198t-87 283t-17 332zM414 -480q0 46 33 77t79 31t79 -31t33 -77v-10q72 -6 138 -6t114 25t72 88t12 183q-62 32 -126 30 t-124 -12t-111 -17t-85 13t-46 78t4 180q60 22 81 9t24 -43t-2 -69t1 -65q18 -14 68 -4t112 21t127 10t112 -36t68 -117t-5 -234q-10 -58 -60 -89t-120 -41t-151 -5t-153 19q-28 -16 -62 -16q-46 0 -79 31t-33 77z" />
<glyph unicode="&#xc8;" horiz-adv-x="1360" d="M78 1856q0 46 34 79t82 33q24 0 45 -9t37 -25q238 10 423 1t305 1q16 22 42 36t56 14q48 0 82 -33t34 -79t-34 -79t-82 -33q-70 0 -102 58q-94 -8 -213 -3t-229 11t-193 5t-103 -21l24 -788l614 8q16 28 42 44t60 16q48 0 82 -33t34 -79t-34 -79t-82 -33q-60 0 -92 44 h-624l4 -710q54 -6 151 -11t210 -7t227 -1t202 7q14 30 43 40t65 10q48 0 82 -33t34 -79t-34 -79t-82 -33q-40 0 -70 19t-42 53h-742q-14 -28 -43 -46t-63 -18q-48 0 -82 33t-34 79q0 30 15 54t39 40q6 66 8 200t1 328t-5 443t-12 547q-34 10 -57 40t-23 68zM400 2320 q0 46 34 79t82 33t82 -33t34 -79q0 -16 -2 -24l138 -100q32 28 76 28q48 0 82 -33t34 -79t-34 -79t-82 -33t-82 33t-34 79v13t2 13q-24 20 -36 29t-25 16t-32 16l-57 27q-28 -18 -64 -18q-48 0 -82 33t-34 79z" />
<glyph unicode="&#xc9;" horiz-adv-x="1360" d="M78 1856q0 46 34 79t82 33q24 0 45 -9t37 -25q238 10 423 1t305 1q16 22 42 36t56 14q48 0 82 -33t34 -79t-34 -79t-82 -33q-70 0 -102 58q-94 -8 -213 -3t-229 11t-193 5t-103 -21l24 -788l614 8q16 28 42 44t60 16q48 0 82 -33t34 -79t-34 -79t-82 -33q-60 0 -92 44 h-624l4 -710q54 -6 151 -11t210 -7t227 -1t202 7q14 30 43 40t65 10q48 0 82 -33t34 -79t-34 -79t-82 -33q-40 0 -70 19t-42 53h-742q-14 -28 -43 -46t-63 -18q-48 0 -82 33t-34 79q0 30 15 54t39 40q6 66 8 200t1 328t-5 443t-12 547q-34 10 -57 40t-23 68zM408 2160 q0 46 33 79t79 33t74 -28l134 100q-2 8 -2 24q0 46 34 79t80 33t79 -33t33 -79t-33 -79t-79 -33q-38 0 -62 18q-36 -18 -55 -27t-31 -16t-24 -16t-36 -29q2 -6 2 -13v-13q0 -46 -34 -79t-80 -33t-79 33t-33 79z" />
<glyph unicode="&#xca;" horiz-adv-x="1360" d="M78 1856q0 46 34 79t82 33q24 0 45 -9t37 -25q238 10 423 1t305 1q16 22 42 36t56 14q48 0 82 -33t34 -79t-34 -79t-82 -33q-70 0 -102 58q-94 -8 -213 -3t-229 11t-193 5t-103 -21l24 -788l614 8q16 28 42 44t60 16q48 0 82 -33t34 -79t-34 -79t-82 -33q-60 0 -92 44 h-624l4 -710q54 -6 151 -11t210 -7t227 -1t202 7q14 30 43 40t65 10q48 0 82 -33t34 -79t-34 -79t-82 -33q-40 0 -70 19t-42 53h-742q-14 -28 -43 -46t-63 -18q-48 0 -82 33t-34 79q0 30 15 54t39 40q6 66 8 200t1 328t-5 443t-12 547q-34 10 -57 40t-23 68zM264 2130 q0 46 34 79t82 33h10q32 56 54 94t42 70t40 63t48 75q-22 28 -22 66q0 46 34 79t82 33t82 -33t34 -79q0 -38 -22 -66l214 -278h4q48 0 82 -33t34 -79t-34 -79t-82 -33t-82 33t-34 79q0 34 18 62l-212 276l-190 -306q16 -26 16 -56q0 -46 -34 -79t-82 -33t-82 33t-34 79z" />
<glyph unicode="&#xcb;" horiz-adv-x="1360" d="M78 1856q0 46 34 79t82 33q24 0 45 -9t37 -25q238 10 423 1t305 1q16 22 42 36t56 14q48 0 82 -33t34 -79t-34 -79t-82 -33q-70 0 -102 58q-94 -8 -213 -3t-229 11t-193 5t-103 -21l24 -788l614 8q16 28 42 44t60 16q48 0 82 -33t34 -79t-34 -79t-82 -33q-60 0 -92 44 h-624l4 -710q54 -6 151 -11t210 -7t227 -1t202 7q14 30 43 40t65 10q48 0 82 -33t34 -79t-34 -79t-82 -33q-40 0 -70 19t-42 53h-742q-14 -28 -43 -46t-63 -18q-48 0 -82 33t-34 79q0 30 15 54t39 40q6 66 8 200t1 328t-5 443t-12 547q-34 10 -57 40t-23 68zM384 2140 q0 46 34 79t82 33t82 -33t34 -79t-34 -79t-82 -33t-82 33t-34 79zM742 2140q0 46 34 79t82 33t82 -33t34 -79t-34 -79t-82 -33t-82 33t-34 79z" />
<glyph unicode="&#xcc;" horiz-adv-x="1616" d="M40 112q0 46 34 79t82 33q32 0 57 -15t41 -39l454 18q14 354 21 600t8 413t-1 268t-4 168t-3 112t3 99q-18 2 -67 1t-111 -5t-128 -9t-116 -9q-14 -30 -43 -48t-63 -18q-48 0 -82 33t-34 79t34 79t82 33q30 0 55 -15t41 -37q68 6 183 11t255 9t297 4t313 -4q16 24 42 39 t58 15q48 0 82 -33t34 -79t-34 -79t-82 -33q-34 0 -62 17t-42 45l-492 4l8 -1656l468 -4q14 30 43 49t65 19q48 0 82 -33t34 -79t-34 -79t-82 -33q-62 0 -94 46l-1090 -28q-16 -22 -41 -36t-55 -14q-48 0 -82 33t-34 79zM528 2320q0 46 34 79t82 33t82 -33t34 -79 q0 -16 -2 -24l138 -100q32 28 76 28q48 0 82 -33t34 -79t-34 -79t-82 -33t-82 33t-34 79v13t2 13q-24 20 -36 29t-25 16t-32 16l-57 27q-28 -18 -64 -18q-48 0 -82 33t-34 79z" />
<glyph unicode="&#xcd;" horiz-adv-x="1616" d="M40 112q0 46 34 79t82 33q32 0 57 -15t41 -39l454 18q14 354 21 600t8 413t-1 268t-4 168t-3 112t3 99q-18 2 -67 1t-111 -5t-128 -9t-116 -9q-14 -30 -43 -48t-63 -18q-48 0 -82 33t-34 79t34 79t82 33q30 0 55 -15t41 -37q68 6 183 11t255 9t297 4t313 -4q16 24 42 39 t58 15q48 0 82 -33t34 -79t-34 -79t-82 -33q-34 0 -62 17t-42 45l-492 4l8 -1656l468 -4q14 30 43 49t65 19q48 0 82 -33t34 -79t-34 -79t-82 -33q-62 0 -94 46l-1090 -28q-16 -22 -41 -36t-55 -14q-48 0 -82 33t-34 79zM536 2160q0 46 33 79t79 33t74 -28l134 100 q-2 8 -2 24q0 46 34 79t80 33t79 -33t33 -79t-33 -79t-79 -33q-38 0 -62 18q-36 -18 -55 -27t-31 -16t-24 -16t-36 -29q2 -6 2 -13v-13q0 -46 -34 -79t-80 -33t-79 33t-33 79z" />
<glyph unicode="&#xce;" horiz-adv-x="1616" d="M40 112q0 46 34 79t82 33q32 0 57 -15t41 -39l454 18q14 354 21 600t8 413t-1 268t-4 168t-3 112t3 99q-18 2 -67 1t-111 -5t-128 -9t-116 -9q-14 -30 -43 -48t-63 -18q-48 0 -82 33t-34 79t34 79t82 33q30 0 55 -15t41 -37q68 6 183 11t255 9t297 4t313 -4q16 24 42 39 t58 15q48 0 82 -33t34 -79t-34 -79t-82 -33q-34 0 -62 17t-42 45l-492 4l8 -1656l468 -4q14 30 43 49t65 19q48 0 82 -33t34 -79t-34 -79t-82 -33q-62 0 -94 46l-1090 -28q-16 -22 -41 -36t-55 -14q-48 0 -82 33t-34 79zM392 2130q0 46 34 79t82 33h10q32 56 54 94t42 70 t40 63t48 75q-22 28 -22 66q0 46 34 79t82 33t82 -33t34 -79q0 -38 -22 -66l214 -278h4q48 0 82 -33t34 -79t-34 -79t-82 -33t-82 33t-34 79q0 34 18 62l-212 276l-190 -306q16 -26 16 -56q0 -46 -34 -79t-82 -33t-82 33t-34 79z" />
<glyph unicode="&#xcf;" horiz-adv-x="1616" d="M40 112q0 46 34 79t82 33q32 0 57 -15t41 -39l454 18q14 354 21 600t8 413t-1 268t-4 168t-3 112t3 99q-18 2 -67 1t-111 -5t-128 -9t-116 -9q-14 -30 -43 -48t-63 -18q-48 0 -82 33t-34 79t34 79t82 33q30 0 55 -15t41 -37q68 6 183 11t255 9t297 4t313 -4q16 24 42 39 t58 15q48 0 82 -33t34 -79t-34 -79t-82 -33q-34 0 -62 17t-42 45l-492 4l8 -1656l468 -4q14 30 43 49t65 19q48 0 82 -33t34 -79t-34 -79t-82 -33q-62 0 -94 46l-1090 -28q-16 -22 -41 -36t-55 -14q-48 0 -82 33t-34 79zM512 2140q0 46 34 79t82 33t82 -33t34 -79t-34 -79 t-82 -33t-82 33t-34 79zM870 2140q0 46 34 79t82 33t82 -33t34 -79t-34 -79t-82 -33t-82 33t-34 79z" />
<glyph unicode="&#xd1;" horiz-adv-x="1432" d="M80 1880q0 46 34 79t82 33t82 -33t34 -79q0 -44 -28 -72l912 -1536l-56 1528q-28 16 -44 42t-16 58q0 46 34 79t82 33t82 -33t34 -79q0 -28 -28 -56t-48 -44l48 -1594q34 -10 58 -39t24 -67q0 -46 -34 -79t-82 -33t-82 33t-34 79q0 32 18 60l-924 1584q-4 -94 -5 -221 t0 -270t5 -291t8 -285t8 -253t8 -192q12 -8 27 -15t29 -18t22 -29t8 -48q-2 -46 -35 -79t-81 -33t-82 33t-34 79q0 60 48 92q8 132 5 316t-9 394t-9 430t3 424q-28 14 -46 41t-18 61zM142 2160q0 46 34 79t82 33h2q80 126 144 187t117 76t96 -8t79 -66t68 -96t62 -100 t61 -79t65 -29t74 47t90 150q-58 32 -58 98q0 46 34 79t82 33t82 -33t34 -79q0 -38 -23 -67t-57 -39q-18 -108 -62 -164t-98 -92q-74 -30 -129 -17t-99 50t-79 87t-66 97t-63 79t-68 32q-28 6 -52 -11t-47 -48t-44 -71t-41 -78q12 -22 12 -50q0 -46 -34 -79t-82 -33t-82 33 t-34 79z" />
<glyph unicode="&#xd2;" horiz-adv-x="1726" d="M92 800q2 156 35 311t97 297t154 253t204 183t246 84q10 34 41 57t71 23q42 0 74 -26t40 -66q172 -24 293 -104t194 -196t103 -259t20 -295t-58 -304t-127 -286t-189 -240t-244 -167t-292 -67t-332 62q-116 72 -189 187t-108 256t-33 297zM187 831q-9 -141 21 -271 t103 -244t201 -196q128 -44 251 -32t234 67t207 146t169 205t122 243t66 261t0 260t-76 239t-161 197t-256 134l-12 4l-12 4q-14 -28 -42 -46t-62 -18q-36 0 -64 18t-42 48q-92 -22 -182 -89t-170 -167t-144 -225t-103 -261t-48 -277zM726 2336q0 46 34 79t82 33t82 -33 t34 -79q0 -16 -2 -24l138 -100q32 28 76 28q48 0 82 -33t34 -79t-34 -79t-82 -33t-82 33t-34 79v13t2 13q-24 20 -36 29t-25 16t-32 16l-57 27q-28 -18 -64 -18q-48 0 -82 33t-34 79z" />
<glyph unicode="&#xd3;" horiz-adv-x="1726" d="M92 800q2 156 35 311t97 297t154 253t204 183t246 84q10 34 41 57t71 23q42 0 74 -26t40 -66q172 -24 293 -104t194 -196t103 -259t20 -295t-58 -304t-127 -286t-189 -240t-244 -167t-292 -67t-332 62q-116 72 -189 187t-108 256t-33 297zM187 831q-9 -141 21 -271 t103 -244t201 -196q128 -44 251 -32t234 67t207 146t169 205t122 243t66 261t0 260t-76 239t-161 197t-256 134l-12 4l-12 4q-14 -28 -42 -46t-62 -18q-36 0 -64 18t-42 48q-92 -22 -182 -89t-170 -167t-144 -225t-103 -261t-48 -277zM590 2160q0 46 33 79t79 33t74 -28 l134 100q-2 8 -2 24q0 46 34 79t80 33t79 -33t33 -79t-33 -79t-79 -33q-38 0 -62 18q-36 -18 -55 -27t-31 -16t-24 -16t-36 -29q2 -6 2 -13v-13q0 -46 -34 -79t-80 -33t-79 33t-33 79z" />
<glyph unicode="&#xd4;" horiz-adv-x="1726" d="M92 800q2 156 35 311t97 297t154 253t204 183t246 84q10 34 41 57t71 23q42 0 74 -26t40 -66q172 -24 293 -104t194 -196t103 -259t20 -295t-58 -304t-127 -286t-189 -240t-244 -167t-292 -67t-332 62q-116 72 -189 187t-108 256t-33 297zM187 831q-9 -141 21 -271 t103 -244t201 -196q128 -44 251 -32t234 67t207 146t169 205t122 243t66 261t0 260t-76 239t-161 197t-256 134l-12 4l-12 4q-14 -28 -42 -46t-62 -18q-36 0 -64 18t-42 48q-92 -22 -182 -89t-170 -167t-144 -225t-103 -261t-48 -277zM446 2130q0 46 34 79t82 33h10 q32 56 54 94t42 70t40 63t48 75q-22 28 -22 66q0 46 34 79t82 33t82 -33t34 -79q0 -38 -22 -66l214 -278h4q48 0 82 -33t34 -79t-34 -79t-82 -33t-82 33t-34 79q0 34 18 62l-212 276l-190 -306q16 -26 16 -56q0 -46 -34 -79t-82 -33t-82 33t-34 79z" />
<glyph unicode="&#xd5;" horiz-adv-x="1726" d="M92 800q2 156 35 311t97 297t154 253t204 183t246 84q10 34 41 57t71 23q42 0 74 -26t40 -66q172 -24 293 -104t194 -196t103 -259t20 -295t-58 -304t-127 -286t-189 -240t-244 -167t-292 -67t-332 62q-116 72 -189 187t-108 256t-33 297zM187 831q-9 -141 21 -271 t103 -244t201 -196q128 -44 251 -32t234 67t207 146t169 205t122 243t66 261t0 260t-76 239t-161 197t-256 134l-12 4l-12 4q-14 -28 -42 -46t-62 -18q-36 0 -64 18t-42 48q-92 -22 -182 -89t-170 -167t-144 -225t-103 -261t-48 -277zM288 2160q0 46 34 79t82 33h2 q80 126 144 187t117 76t96 -8t79 -66t68 -96t62 -100t61 -79t65 -29t74 47t90 150q-58 32 -58 98q0 46 34 79t82 33t82 -33t34 -79q0 -38 -23 -67t-57 -39q-18 -108 -62 -164t-98 -92q-74 -30 -129 -17t-99 50t-79 87t-66 97t-63 79t-68 32q-28 6 -52 -11t-47 -48t-44 -71 t-41 -78q12 -22 12 -50q0 -46 -34 -79t-82 -33t-82 33t-34 79z" />
<glyph unicode="&#xd6;" horiz-adv-x="1726" d="M92 800q2 156 35 311t97 297t154 253t204 183t246 84q10 34 41 57t71 23q42 0 74 -26t40 -66q172 -24 293 -104t194 -196t103 -259t20 -295t-58 -304t-127 -286t-189 -240t-244 -167t-292 -67t-332 62q-116 72 -189 187t-108 256t-33 297zM187 831q-9 -141 21 -271 t103 -244t201 -196q128 -44 251 -32t234 67t207 146t169 205t122 243t66 261t0 260t-76 239t-161 197t-256 134l-12 4l-12 4q-14 -28 -42 -46t-62 -18q-36 0 -64 18t-42 48q-92 -22 -182 -89t-170 -167t-144 -225t-103 -261t-48 -277zM568 2140q0 46 34 79t82 33t82 -33 t34 -79t-34 -79t-82 -33t-82 33t-34 79zM926 2140q0 46 34 79t82 33t82 -33t34 -79t-34 -79t-82 -33t-82 33t-34 79z" />
<glyph unicode="&#xd8;" horiz-adv-x="1726" d="M82 30q0 46 34 79t82 33h4l1118 1818q-18 26 -18 62q0 46 34 79t82 33t82 -33t34 -79q0 -40 -25 -70t-65 -40l-1144 -1824q14 -16 14 -26v-32q0 -46 -34 -79t-82 -33t-82 33t-34 79zM92 800q2 156 35 311t97 297t154 253t204 183t246 84q10 34 41 57t71 23q42 0 74 -26 t40 -66q172 -24 293 -104t194 -196t103 -259t20 -295t-58 -304t-127 -286t-189 -240t-244 -167t-292 -67t-332 62q-116 72 -189 187t-108 256t-33 297zM187 831q-9 -141 21 -271t103 -244t201 -196q128 -44 251 -32t234 67t207 146t169 205t122 243t66 261t0 260t-76 239 t-161 197t-256 134l-12 4l-12 4q-14 -28 -42 -46t-62 -18q-36 0 -64 18t-42 48q-92 -22 -182 -89t-170 -167t-144 -225t-103 -261t-48 -277z" />
<glyph unicode="&#xd9;" horiz-adv-x="1288" d="M58 1850q0 46 34 79t82 33t82 -33t34 -79q0 -58 -46 -90q-2 -60 -5 -155t-7 -203t-8 -220t-7 -209t-5 -169t0 -100q4 -152 46 -265t106 -184t145 -95t164 2t161 106t138 220q32 74 52 177t30 221t12 242t0 241t-8 220t-12 177q-52 32 -52 94q0 46 34 79t82 33t82 -33 t34 -79q0 -34 -17 -59t-45 -41q10 -66 20 -184t13 -264t-8 -307t-43 -315t-90 -288t-152 -225t-227 -126t-315 9q-108 80 -171 216t-89 340t-18 484t42 648q-30 14 -49 41t-19 61zM364 2320q0 46 34 79t82 33t82 -33t34 -79q0 -16 -2 -24l138 -100q32 28 76 28q48 0 82 -33 t34 -79t-34 -79t-82 -33t-82 33t-34 79v13t2 13q-24 20 -36 29t-25 16t-32 16l-57 27q-28 -18 -64 -18q-48 0 -82 33t-34 79z" />
<glyph unicode="&#xda;" horiz-adv-x="1288" d="M58 1850q0 46 34 79t82 33t82 -33t34 -79q0 -58 -46 -90q-2 -60 -5 -155t-7 -203t-8 -220t-7 -209t-5 -169t0 -100q4 -152 46 -265t106 -184t145 -95t164 2t161 106t138 220q32 74 52 177t30 221t12 242t0 241t-8 220t-12 177q-52 32 -52 94q0 46 34 79t82 33t82 -33 t34 -79q0 -34 -17 -59t-45 -41q10 -66 20 -184t13 -264t-8 -307t-43 -315t-90 -288t-152 -225t-227 -126t-315 9q-108 80 -171 216t-89 340t-18 484t42 648q-30 14 -49 41t-19 61zM372 2160q0 46 33 79t79 33t74 -28l134 100q-2 8 -2 24q0 46 34 79t80 33t79 -33t33 -79 t-33 -79t-79 -33q-38 0 -62 18q-36 -18 -55 -27t-31 -16t-24 -16t-36 -29q2 -6 2 -13v-13q0 -46 -34 -79t-80 -33t-79 33t-33 79z" />
<glyph unicode="&#xdb;" horiz-adv-x="1288" d="M58 1850q0 46 34 79t82 33t82 -33t34 -79q0 -58 -46 -90q-2 -60 -5 -155t-7 -203t-8 -220t-7 -209t-5 -169t0 -100q4 -152 46 -265t106 -184t145 -95t164 2t161 106t138 220q32 74 52 177t30 221t12 242t0 241t-8 220t-12 177q-52 32 -52 94q0 46 34 79t82 33t82 -33 t34 -79q0 -34 -17 -59t-45 -41q10 -66 20 -184t13 -264t-8 -307t-43 -315t-90 -288t-152 -225t-227 -126t-315 9q-108 80 -171 216t-89 340t-18 484t42 648q-30 14 -49 41t-19 61zM228 2130q0 46 34 79t82 33h10q32 56 54 94t42 70t40 63t48 75q-22 28 -22 66q0 46 34 79 t82 33t82 -33t34 -79q0 -38 -22 -66l214 -278h4q48 0 82 -33t34 -79t-34 -79t-82 -33t-82 33t-34 79q0 34 18 62l-212 276l-190 -306q16 -26 16 -56q0 -46 -34 -79t-82 -33t-82 33t-34 79z" />
<glyph unicode="&#xdc;" horiz-adv-x="1288" d="M58 1850q0 46 34 79t82 33t82 -33t34 -79q0 -58 -46 -90q-2 -60 -5 -155t-7 -203t-8 -220t-7 -209t-5 -169t0 -100q4 -152 46 -265t106 -184t145 -95t164 2t161 106t138 220q32 74 52 177t30 221t12 242t0 241t-8 220t-12 177q-52 32 -52 94q0 46 34 79t82 33t82 -33 t34 -79q0 -34 -17 -59t-45 -41q10 -66 20 -184t13 -264t-8 -307t-43 -315t-90 -288t-152 -225t-227 -126t-315 9q-108 80 -171 216t-89 340t-18 484t42 648q-30 14 -49 41t-19 61zM348 2140q0 46 34 79t82 33t82 -33t34 -79t-34 -79t-82 -33t-82 33t-34 79zM706 2140 q0 46 34 79t82 33t82 -33t34 -79t-34 -79t-82 -33t-82 33t-34 79z" />
<glyph unicode="&#xdd;" horiz-adv-x="1456" d="M20 1872q0 46 34 79t82 33t82 -33t34 -79v-6l604 -692l330 656q-22 28 -22 66q0 46 34 79t82 33t82 -33t34 -79q0 -44 -30 -76t-74 -36l-360 -712q0 -98 -2 -204t-5 -216t-4 -221t3 -215q34 -10 53 -39t19 -67q0 -46 -34 -79t-82 -33t-82 33t-34 79q0 58 48 90l-28 872 l-626 700q-30 -16 -55 -11t-43 22t-29 41t-11 48zM456 2160q0 46 33 79t79 33t74 -28l134 100q-2 8 -2 24q0 46 34 79t80 33t79 -33t33 -79t-33 -79t-79 -33q-38 0 -62 18q-36 -18 -55 -27t-31 -16t-24 -16t-36 -29q2 -6 2 -13v-13q0 -46 -34 -79t-80 -33t-79 33t-33 79z " />
<glyph unicode="&#xde;" horiz-adv-x="1072" d="M84 1436q0 46 33 77t79 31t79 -31t33 -77q0 -32 -16 -57t-44 -39l6 -420q146 130 261 189t201 61t146 -42t93 -120t42 -174t-4 -202t-48 -206t-90 -185t-128 -139t-163 -68q-40 -4 -78 -8t-74 -1t-70 16t-66 41q2 -98 3 -149t1 -74v-32v-23t1 -46t3 -102q24 -14 39 -38 t15 -54q0 -46 -33 -77t-79 -31t-79 31t-33 77q0 24 21 44t37 36l-22 1704q-20 16 -43 38t-23 50zM265 375q11 -123 75 -231q108 -32 201 5t164 115t119 184t68 213t9 200t-57 145t-131 49t-211 -87q-76 -52 -135 -146t-86 -209t-16 -238z" />
<glyph unicode="&#xdf;" horiz-adv-x="1192" d="M38 1848q0 46 34 79t82 33q12 0 16 -2q76 42 168 40t185 -37t179 -96t150 -137t98 -160t23 -166t-73 -156t-192 -126q198 -8 305 -71t141 -155t4 -200t-106 -204t-189 -168t-245 -92q-10 -34 -40 -56t-70 -22q-48 0 -82 33t-34 79t34 79t82 33q28 0 51 -12t39 -32 q72 14 145 46t135 81t108 116t66 153q6 96 -31 157t-103 95t-152 47t-176 15q-14 -30 -43 -48t-63 -18q-48 0 -82 33t-34 79t34 79t82 33q36 0 70 -24q66 24 121 50t95 58t62 70t20 86q-2 78 -34 148t-83 127t-115 99t-128 63t-123 20t-101 -29q0 -4 1 -10t1 -10 q0 -34 -19 -62t-51 -42q12 -88 13 -270t3 -420t11 -511t37 -543q56 -32 56 -96q0 -46 -34 -79t-82 -33t-82 33t-34 79q0 54 42 86q-4 102 -8 241t-9 297t-8 326t-5 330t-2 306t6 256q-30 14 -48 41t-18 61z" />
<glyph unicode="&#xe0;" d="M41 311q-9 109 12 227t68 233t111 203t142 140t161 43t170 -89t167 -256v192q-40 30 -40 84q0 46 33 77t79 31t79 -31t33 -77q0 -30 -15 -55t-41 -39l-40 -800q36 -10 60 -38t24 -66q0 -46 -33 -77t-79 -31t-79 31t-33 77q0 40 26 70l4 184q-18 -36 -66 -89t-107 -105 t-121 -93t-110 -51q-134 -30 -220 5t-131 113t-54 187zM151 319q19 -109 95 -187q42 -32 94 -33t109 20t113 60t107 90t92 110t67 117v200q-6 24 -22 65t-41 86t-60 86t-77 67q-66 54 -141 33t-143 -91t-120 -177t-72 -222t-1 -224zM288 1508q0 46 34 79t82 33t82 -33 t34 -79q0 -16 -2 -24l138 -100q32 28 76 28q48 0 82 -33t34 -79t-34 -79t-82 -33t-82 33t-34 79v13t2 13q-24 20 -36 29t-25 16t-32 16l-57 27q-28 -18 -64 -18q-48 0 -82 33t-34 79z" />
<glyph unicode="&#xe1;" d="M41 311q-9 109 12 227t68 233t111 203t142 140t161 43t170 -89t167 -256v192q-40 30 -40 84q0 46 33 77t79 31t79 -31t33 -77q0 -30 -15 -55t-41 -39l-40 -800q36 -10 60 -38t24 -66q0 -46 -33 -77t-79 -31t-79 31t-33 77q0 40 26 70l4 184q-18 -36 -66 -89t-107 -105 t-121 -93t-110 -51q-134 -30 -220 5t-131 113t-54 187zM151 319q19 -109 95 -187q42 -32 94 -33t109 20t113 60t107 90t92 110t67 117v200q-6 24 -22 65t-41 86t-60 86t-77 67q-66 54 -141 33t-143 -91t-120 -177t-72 -222t-1 -224zM296 1348q0 46 33 79t79 33t74 -28 l134 100q-2 8 -2 24q0 46 34 79t80 33t79 -33t33 -79t-33 -79t-79 -33q-38 0 -62 18q-36 -18 -55 -27t-31 -16t-24 -16t-36 -29q2 -6 2 -13v-13q0 -46 -34 -79t-80 -33t-79 33t-33 79z" />
<glyph unicode="&#xe2;" d="M41 311q-9 109 12 227t68 233t111 203t142 140t161 43t170 -89t167 -256v192q-40 30 -40 84q0 46 33 77t79 31t79 -31t33 -77q0 -30 -15 -55t-41 -39l-40 -800q36 -10 60 -38t24 -66q0 -46 -33 -77t-79 -31t-79 31t-33 77q0 40 26 70l4 184q-18 -36 -66 -89t-107 -105 t-121 -93t-110 -51q-134 -30 -220 5t-131 113t-54 187zM151 319q19 -109 95 -187q42 -32 94 -33t109 20t113 60t107 90t92 110t67 117v200q-6 24 -22 65t-41 86t-60 86t-77 67q-66 54 -141 33t-143 -91t-120 -177t-72 -222t-1 -224zM152 1318q0 46 34 79t82 33h10 q32 56 54 94t42 70t40 63t48 75q-22 28 -22 66q0 46 34 79t82 33t82 -33t34 -79q0 -38 -22 -66l214 -278h4q48 0 82 -33t34 -79t-34 -79t-82 -33t-82 33t-34 79q0 34 18 62l-212 276l-190 -306q16 -26 16 -56q0 -46 -34 -79t-82 -33t-82 33t-34 79z" />
<glyph unicode="&#xe3;" d="M-4 1348q0 46 34 79t82 33h2q80 126 144 187t117 76t96 -8t79 -66t68 -96t62 -100t61 -79t65 -29t74 47t90 150q-58 32 -58 98q0 46 34 79t82 33t82 -33t34 -79q0 -38 -23 -67t-57 -39q-18 -108 -62 -164t-98 -92q-74 -30 -129 -17t-99 50t-79 87t-66 97t-63 79t-68 32 q-28 6 -52 -11t-47 -48t-44 -71t-41 -78q12 -22 12 -50q0 -46 -34 -79t-82 -33t-82 33t-34 79zM41 311q-9 109 12 227t68 233t111 203t142 140t161 43t170 -89t167 -256v192q-40 30 -40 84q0 46 33 77t79 31t79 -31t33 -77q0 -30 -15 -55t-41 -39l-40 -800q36 -10 60 -38 t24 -66q0 -46 -33 -77t-79 -31t-79 31t-33 77q0 40 26 70l4 184q-18 -36 -66 -89t-107 -105t-121 -93t-110 -51q-134 -30 -220 5t-131 113t-54 187zM151 319q19 -109 95 -187q42 -32 94 -33t109 20t113 60t107 90t92 110t67 117v200q-6 24 -22 65t-41 86t-60 86t-77 67 q-66 54 -141 33t-143 -91t-120 -177t-72 -222t-1 -224z" />
<glyph unicode="&#xe4;" d="M41 311q-9 109 12 227t68 233t111 203t142 140t161 43t170 -89t167 -256v192q-40 30 -40 84q0 46 33 77t79 31t79 -31t33 -77q0 -30 -15 -55t-41 -39l-40 -800q36 -10 60 -38t24 -66q0 -46 -33 -77t-79 -31t-79 31t-33 77q0 40 26 70l4 184q-18 -36 -66 -89t-107 -105 t-121 -93t-110 -51q-134 -30 -220 5t-131 113t-54 187zM151 319q19 -109 95 -187q42 -32 94 -33t109 20t113 60t107 90t92 110t67 117v200q-6 24 -22 65t-41 86t-60 86t-77 67q-66 54 -141 33t-143 -91t-120 -177t-72 -222t-1 -224zM272 1328q0 46 34 79t82 33t82 -33 t34 -79t-34 -79t-82 -33t-82 33t-34 79zM630 1328q0 46 34 79t82 33t82 -33t34 -79t-34 -79t-82 -33t-82 33t-34 79z" />
<glyph unicode="&#xe5;" d="M41 311q-9 109 12 227t68 233t111 203t142 140t161 43t170 -89t167 -256v192q-40 30 -40 84q0 46 33 77t79 31t79 -31t33 -77q0 -30 -15 -55t-41 -39l-40 -800q36 -10 60 -38t24 -66q0 -46 -33 -77t-79 -31t-79 31t-33 77q0 40 26 70l4 184q-18 -36 -66 -89t-107 -105 t-121 -93t-110 -51q-134 -30 -220 5t-131 113t-54 187zM151 319q19 -109 95 -187q42 -32 94 -33t109 20t113 60t107 90t92 110t67 117v200q-6 24 -22 65t-41 86t-60 86t-77 67q-66 54 -141 33t-143 -91t-120 -177t-72 -222t-1 -224zM160 1378q26 98 128 230q-6 18 -6 38 q0 46 33 77t79 31q34 0 64 -20q114 40 206 43t156 -22t98 -70t32 -100t-42 -114t-122 -111q-246 -114 -392 -139t-203 17t-31 140zM278 1399q-20 -53 19 -71t131 2t228 78q98 52 136 95t34 74t-41 50t-86 27t-102 2t-91 -24q-4 -40 -36 -67t-76 -27h-8q-88 -86 -108 -139z " />
<glyph unicode="&#xe6;" horiz-adv-x="1904" d="M41 311q-9 109 12 227t68 233t111 203t142 140t161 43t170 -89t167 -256v192q-40 30 -40 84q0 46 33 77t79 31t79 -31t33 -77q0 -30 -15 -55t-41 -39l-4 -56q58 98 138 164t173 63t193 -96t200 -311q28 -14 46 -40t18 -58q0 -46 -33 -77t-79 -31q-22 0 -40 6 q-56 -18 -129 -24t-153 -10t-163 -9t-161 -17q-18 -128 8 -208t78 -122t122 -52t143 0t138 36t109 56v16q0 46 33 77t79 31t79 -31t33 -77t-33 -77t-79 -31q-44 0 -76 28q-72 -72 -153 -112t-160 -49t-153 12t-134 67q-10 -34 -39 -57t-69 -23q-46 0 -79 31t-33 77 q0 40 26 70l4 184q-18 -36 -66 -89t-107 -105t-121 -93t-110 -51q-134 -30 -220 5t-131 113t-54 187zM151 319q19 -109 95 -187q42 -32 94 -33t109 20t113 60t107 90t92 110t67 117v200q-6 24 -22 65t-41 86t-60 86t-77 67q-66 54 -141 33t-143 -91t-120 -177t-72 -222 t-1 -224zM1014 620l2 -2q56 0 122 4t135 10t138 16t129 22q2 34 28 62q-50 124 -105 189t-112 83t-110 -7t-98 -79t-79 -131t-50 -167z" />
<glyph unicode="&#xe7;" horiz-adv-x="1016" d="M57 557q5 145 67 295q56 140 124 218t140 109t143 22t133 -41t109 -80t73 -96q36 -8 61 -37t25 -67q0 -46 -33 -77t-79 -31t-79 31t-33 77q0 32 14 54q-92 108 -179 125t-158 -29t-122 -141t-74 -213t-14 -245t61 -235q26 -54 87 -80t136 -23t154 33t141 88 q-24 26 -24 68q0 46 33 77t79 31t79 -31t33 -77t-33 -77t-79 -31q-14 0 -22 2q-120 -132 -235 -175t-213 -18t-172 108t-111 202t-32 264zM304 -496q0 46 33 77t79 31t79 -31t33 -77v-10q72 -6 138 -6t114 25t72 88t12 183q-62 32 -126 30t-124 -12t-111 -17t-85 13t-46 78 t4 180q60 22 81 9t24 -43t-2 -69t1 -65q18 -14 68 -4t112 21t127 10t112 -36t68 -117t-5 -234q-10 -58 -60 -89t-120 -41t-151 -5t-153 19q-28 -16 -62 -16q-46 0 -79 31t-33 77z" />
<glyph unicode="&#xe8;" horiz-adv-x="1144" d="M62 606q0 42 29 73t71 35q20 88 63 181t104 164t135 108t157 15t170 -116t173 -284q28 -14 46 -40t18 -58q0 -46 -33 -77t-79 -31q-22 0 -40 6q-56 -18 -129 -24t-153 -10t-163 -9t-161 -17q-18 -128 8 -208t78 -122t122 -52t143 0t138 36t109 56v16q0 46 33 77t79 31 t79 -31t33 -77t-33 -77t-79 -31q-44 0 -76 28q-80 -80 -170 -120t-177 -42t-165 30t-136 96t-90 157t-26 213q-34 10 -56 39t-22 65zM276 1596q0 46 34 79t82 33t82 -33t34 -79q0 -16 -2 -24l138 -100q32 28 76 28q48 0 82 -33t34 -79t-34 -79t-82 -33t-82 33t-34 79v13 t2 13q-24 20 -36 29t-25 16t-32 16l-57 27q-28 -18 -64 -18q-48 0 -82 33t-34 79zM278 644l2 -2q56 0 122 4t135 10t138 16t129 22q2 34 28 62q-50 124 -105 189t-112 83t-110 -7t-98 -79t-79 -131t-50 -167z" />
<glyph unicode="&#xe9;" horiz-adv-x="1144" d="M62 606q0 42 29 73t71 35q20 88 63 181t104 164t135 108t157 15t170 -116t173 -284q28 -14 46 -40t18 -58q0 -46 -33 -77t-79 -31q-22 0 -40 6q-56 -18 -129 -24t-153 -10t-163 -9t-161 -17q-18 -128 8 -208t78 -122t122 -52t143 0t138 36t109 56v16q0 46 33 77t79 31 t79 -31t33 -77t-33 -77t-79 -31q-44 0 -76 28q-80 -80 -170 -120t-177 -42t-165 30t-136 96t-90 157t-26 213q-34 10 -56 39t-22 65zM278 644l2 -2q56 0 122 4t135 10t138 16t129 22q2 34 28 62q-50 124 -105 189t-112 83t-110 -7t-98 -79t-79 -131t-50 -167zM300 1348 q0 46 33 79t79 33t74 -28l134 100q-2 8 -2 24q0 46 34 79t80 33t79 -33t33 -79t-33 -79t-79 -33q-38 0 -62 18q-36 -18 -55 -27t-31 -16t-24 -16t-36 -29q2 -6 2 -13v-13q0 -46 -34 -79t-80 -33t-79 33t-33 79z" />
<glyph unicode="&#xea;" horiz-adv-x="1144" d="M62 606q0 42 29 73t71 35q20 88 63 181t104 164t135 108t157 15t170 -116t173 -284q28 -14 46 -40t18 -58q0 -46 -33 -77t-79 -31q-22 0 -40 6q-56 -18 -129 -24t-153 -10t-163 -9t-161 -17q-18 -128 8 -208t78 -122t122 -52t143 0t138 36t109 56v16q0 46 33 77t79 31 t79 -31t33 -77t-33 -77t-79 -31q-44 0 -76 28q-80 -80 -170 -120t-177 -42t-165 30t-136 96t-90 157t-26 213q-34 10 -56 39t-22 65zM156 1318q0 46 34 79t82 33h10q32 56 54 94t42 70t40 63t48 75q-22 28 -22 66q0 46 34 79t82 33t82 -33t34 -79q0 -38 -22 -66l214 -278h4 q48 0 82 -33t34 -79t-34 -79t-82 -33t-82 33t-34 79q0 34 18 62l-212 276l-190 -306q16 -26 16 -56q0 -46 -34 -79t-82 -33t-82 33t-34 79zM278 644l2 -2q56 0 122 4t135 10t138 16t129 22q2 34 28 62q-50 124 -105 189t-112 83t-110 -7t-98 -79t-79 -131t-50 -167z" />
<glyph unicode="&#xeb;" horiz-adv-x="1144" d="M62 606q0 42 29 73t71 35q20 88 63 181t104 164t135 108t157 15t170 -116t173 -284q28 -14 46 -40t18 -58q0 -46 -33 -77t-79 -31q-22 0 -40 6q-56 -18 -129 -24t-153 -10t-163 -9t-161 -17q-18 -128 8 -208t78 -122t122 -52t143 0t138 36t109 56v16q0 46 33 77t79 31 t79 -31t33 -77t-33 -77t-79 -31q-44 0 -76 28q-80 -80 -170 -120t-177 -42t-165 30t-136 96t-90 157t-26 213q-34 10 -56 39t-22 65zM278 644l2 -2q56 0 122 4t135 10t138 16t129 22q2 34 28 62q-50 124 -105 189t-112 83t-110 -7t-98 -79t-79 -131t-50 -167zM284 1400 q0 46 34 79t82 33t82 -33t34 -79t-34 -79t-82 -33t-82 33t-34 79zM642 1400q0 46 34 79t82 33t82 -33t34 -79t-34 -79t-82 -33t-82 33t-34 79z" />
<glyph unicode="&#xec;" horiz-adv-x="428" d="M-64 1636q0 46 34 79t82 33t82 -33t34 -79q0 -16 -2 -24l138 -100q32 28 76 28q48 0 82 -33t34 -79t-34 -79t-82 -33t-82 33t-34 79v13t2 13q-24 20 -36 29t-25 16t-32 16l-57 27q-28 -18 -64 -18q-48 0 -82 33t-34 79zM100 1092q0 46 33 77t79 31t79 -31t33 -77 q0 -58 -48 -90l22 -796q20 -14 33 -35t17 -45q6 -24 -8 -48q-12 -32 -40 -51t-64 -19q-46 0 -79 31t-33 77q0 30 15 55t41 39l-22 786q-58 28 -58 96z" />
<glyph unicode="&#xed;" horiz-adv-x="428" d="M-56 1348q0 46 33 79t79 33t74 -28l134 100q-2 8 -2 24q0 46 34 79t80 33t79 -33t33 -79t-33 -79t-79 -33q-38 0 -62 18q-36 -18 -55 -27t-31 -16t-24 -16t-36 -29q2 -6 2 -13v-13q0 -46 -34 -79t-80 -33t-79 33t-33 79zM100 1092q0 46 33 77t79 31t79 -31t33 -77 q0 -58 -48 -90l22 -796q20 -14 33 -35t17 -45q6 -24 -8 -48q-12 -32 -40 -51t-64 -19q-46 0 -79 31t-33 77q0 30 15 55t41 39l-22 786q-58 28 -58 96z" />
<glyph unicode="&#xee;" horiz-adv-x="428" d="M-192 1422q0 46 34 79t82 33h10q32 56 54 94t42 70t40 63t48 75q-22 28 -22 66q0 46 34 79t82 33t82 -33t34 -79q0 -38 -22 -66l214 -278h4q48 0 82 -33t34 -79t-34 -79t-82 -33t-82 33t-34 79q0 34 18 62l-212 276l-190 -306q16 -26 16 -56q0 -46 -34 -79t-82 -33 t-82 33t-34 79zM100 1092q0 46 33 77t79 31t79 -31t33 -77q0 -58 -48 -90l22 -796q20 -14 33 -35t17 -45q6 -24 -8 -48q-12 -32 -40 -51t-64 -19q-46 0 -79 31t-33 77q0 30 15 55t41 39l-22 786q-58 28 -58 96z" />
<glyph unicode="&#xef;" horiz-adv-x="428" d="M-70 1432q0 46 34 79t82 33t82 -33t34 -79t-34 -79t-82 -33t-82 33t-34 79zM100 1092q0 46 33 77t79 31t79 -31t33 -77q0 -58 -48 -90l22 -796q20 -14 33 -35t17 -45q6 -24 -8 -48q-12 -32 -40 -51t-64 -19q-46 0 -79 31t-33 77q0 30 15 55t41 39l-22 786q-58 28 -58 96z M288 1432q0 46 34 79t82 33t82 -33t34 -79t-34 -79t-82 -33t-82 33t-34 79z" />
<glyph unicode="&#xf0;" horiz-adv-x="1200" d="M135 569q23 93 84 156t147 87t179 -10t180 -136t149 -290q-10 30 -19 116t-28 199t-55 237t-98 230q-96 -38 -162 -50q-4 -42 -37 -71t-79 -29q-48 0 -82 33t-34 79t34 79t82 33q26 0 50 -12l150 70q-74 126 -144 242t-124 220h-2q-46 0 -78 32t-32 78q0 48 32 81t78 33 t78 -33t32 -81q0 -16 -4 -32t-16 -30q94 -144 172 -255t144 -225l188 62q4 46 37 76t79 30q48 0 82 -33t34 -79t-34 -79t-82 -33q-36 0 -58 14l-186 -76q102 -294 152 -491t48 -333t-56 -232t-160 -186q-16 -22 -40 -35t-52 -13q-34 0 -62 19t-38 49q-194 84 -298 188 t-139 206t-12 195zM238 470q10 -68 45 -135t85 -121t109 -88t119 -34q16 20 39 32t49 12q8 0 14 -1t14 -3q54 42 63 111t-14 144t-71 146t-108 120t-126 64t-126 -21q-60 -38 -81 -98t-11 -128z" />
<glyph unicode="&#xf1;" horiz-adv-x="1104" d="M-20 1348q0 46 34 79t82 33h2q80 126 144 187t117 76t96 -8t79 -66t68 -96t62 -100t61 -79t65 -29t74 47t90 150q-58 32 -58 98q0 46 34 79t82 33t82 -33t34 -79q0 -38 -23 -67t-57 -39q-18 -108 -62 -164t-98 -92q-74 -30 -129 -17t-99 50t-79 87t-66 97t-63 79t-68 32 q-28 6 -52 -11t-47 -48t-44 -71t-41 -78q12 -22 12 -50q0 -46 -34 -79t-82 -33t-82 33t-34 79zM50 1072q0 46 33 77t79 31t79 -31t33 -77q0 -56 -46 -88l-8 -152q76 74 155 144t154 121t143 73t122 -4t92 -108t52 -238q2 -40 8 -119t12 -171t13 -184t11 -154q28 -14 44 -39 t16 -57q0 -46 -33 -77t-79 -31t-79 31t-33 77q0 60 52 92q2 56 2 138t-8 183t-25 214t-45 233q-22 64 -67 75t-101 -11t-118 -69t-116 -99t-93 -99t-51 -69q-14 -30 -22 -90t-10 -133t0 -149t8 -138q26 -14 42 -39t16 -55q0 -46 -33 -77t-79 -31t-79 31t-33 77q0 32 16 57 t44 39q-2 86 -1 200t1 228v213t-2 155q-30 14 -48 40t-18 60z" />
<glyph unicode="&#xf2;" d="M84 560q4 126 40 245t102 203q-6 18 -6 38q0 46 33 77t79 31q34 0 64 -20q134 44 244 29t193 -70t137 -143t76 -191t10 -212t-59 -209t-132 -181t-211 -127q-154 -52 -264 -23t-179 110t-100 199t-27 244zM183 572q-1 -92 21 -173t63 -148t96 -108t122 -49t139 26 q168 98 247 218t90 237t-33 221t-121 172t-173 90t-190 -26q-4 -40 -36 -67t-76 -27h-8q-32 -36 -60 -81t-52 -103q-28 -90 -29 -182zM248 1636q0 46 34 79t82 33t82 -33t34 -79q0 -16 -2 -24l138 -100q32 28 76 28q48 0 82 -33t34 -79t-34 -79t-82 -33t-82 33t-34 79v13 t2 13q-24 20 -36 29t-25 16t-32 16l-57 27q-28 -18 -64 -18q-48 0 -82 33t-34 79z" />
<glyph unicode="&#xf3;" d="M84 560q4 126 40 245t102 203q-6 18 -6 38q0 46 33 77t79 31q34 0 64 -20q134 44 244 29t193 -70t137 -143t76 -191t10 -212t-59 -209t-132 -181t-211 -127q-154 -52 -264 -23t-179 110t-100 199t-27 244zM183 572q-1 -92 21 -173t63 -148t96 -108t122 -49t139 26 q168 98 247 218t90 237t-33 221t-121 172t-173 90t-190 -26q-4 -40 -36 -67t-76 -27h-8q-32 -36 -60 -81t-52 -103q-28 -90 -29 -182zM296 1348q0 46 33 79t79 33t74 -28l134 100q-2 8 -2 24q0 46 34 79t80 33t79 -33t33 -79t-33 -79t-79 -33q-38 0 -62 18q-36 -18 -55 -27 t-31 -16t-24 -16t-36 -29q2 -6 2 -13v-13q0 -46 -34 -79t-80 -33t-79 33t-33 79z" />
<glyph unicode="&#xf4;" d="M84 560q4 126 40 245t102 203q-6 18 -6 38q0 46 33 77t79 31q34 0 64 -20q134 44 244 29t193 -70t137 -143t76 -191t10 -212t-59 -209t-132 -181t-211 -127q-154 -52 -264 -23t-179 110t-100 199t-27 244zM152 1318q0 46 34 79t82 33h10q32 56 54 94t42 70t40 63t48 75 q-22 28 -22 66q0 46 34 79t82 33t82 -33t34 -79q0 -38 -22 -66l214 -278h4q48 0 82 -33t34 -79t-34 -79t-82 -33t-82 33t-34 79q0 34 18 62l-212 276l-190 -306q16 -26 16 -56q0 -46 -34 -79t-82 -33t-82 33t-34 79zM183 572q-1 -92 21 -173t63 -148t96 -108t122 -49t139 26 q168 98 247 218t90 237t-33 221t-121 172t-173 90t-190 -26q-4 -40 -36 -67t-76 -27h-8q-32 -36 -60 -81t-52 -103q-28 -90 -29 -182z" />
<glyph unicode="&#xf5;" d="M-4 1348q0 46 34 79t82 33h2q80 126 144 187t117 76t96 -8t79 -66t68 -96t62 -100t61 -79t65 -29t74 47t90 150q-58 32 -58 98q0 46 34 79t82 33t82 -33t34 -79q0 -38 -23 -67t-57 -39q-18 -108 -62 -164t-98 -92q-74 -30 -129 -17t-99 50t-79 87t-66 97t-63 79t-68 32 q-28 6 -52 -11t-47 -48t-44 -71t-41 -78q12 -22 12 -50q0 -46 -34 -79t-82 -33t-82 33t-34 79zM84 560q4 126 40 245t102 203q-6 18 -6 38q0 46 33 77t79 31q34 0 64 -20q134 44 244 29t193 -70t137 -143t76 -191t10 -212t-59 -209t-132 -181t-211 -127q-154 -52 -264 -23 t-179 110t-100 199t-27 244zM183 572q-1 -92 21 -173t63 -148t96 -108t122 -49t139 26q168 98 247 218t90 237t-33 221t-121 172t-173 90t-190 -26q-4 -40 -36 -67t-76 -27h-8q-32 -36 -60 -81t-52 -103q-28 -90 -29 -182z" />
<glyph unicode="&#xf6;" d="M84 560q4 126 40 245t102 203q-6 18 -6 38q0 46 33 77t79 31q34 0 64 -20q134 44 244 29t193 -70t137 -143t76 -191t10 -212t-59 -209t-132 -181t-211 -127q-154 -52 -264 -23t-179 110t-100 199t-27 244zM183 572q-1 -92 21 -173t63 -148t96 -108t122 -49t139 26 q168 98 247 218t90 237t-33 221t-121 172t-173 90t-190 -26q-4 -40 -36 -67t-76 -27h-8q-32 -36 -60 -81t-52 -103q-28 -90 -29 -182zM272 1328q0 46 34 79t82 33t82 -33t34 -79t-34 -79t-82 -33t-82 33t-34 79zM630 1328q0 46 34 79t82 33t82 -33t34 -79t-34 -79t-82 -33 t-82 33t-34 79z" />
<glyph unicode="&#xf7;" horiz-adv-x="1304" d="M160 1140q0 46 34 79t82 33q52 0 88 -40q72 -2 138 -2t135 2t145 5t166 7q14 28 42 45t62 17q48 0 82 -33t34 -79t-34 -79t-82 -33q-54 0 -88 38q-4 0 4 1t5 1h-27t-89 -3t-181 -9t-306 -16q-36 -46 -94 -46q-48 0 -82 33t-34 79zM512 1144q0 46 34 79t82 33t82 -33 t34 -79t-34 -79t-82 -33t-82 33t-34 79zM528 656q0 46 34 79t82 33t82 -33t34 -79t-34 -79t-82 -33t-82 33t-34 79z" />
<glyph unicode="&#xf8;" d="M48 -128q0 46 34 79t82 33h4l632 1240q-18 26 -18 62q0 46 34 79t82 33t82 -33t34 -79q0 -40 -25 -70t-65 -40l-680 -1232q14 -16 25 -33t11 -39q0 -46 -34 -79t-82 -33t-82 33t-34 79zM84 560q4 126 40 245t102 203q-6 18 -6 38q0 46 33 77t79 31q34 0 64 -20 q134 44 244 29t193 -70t137 -143t76 -191t10 -212t-59 -209t-132 -181t-211 -127q-154 -52 -264 -23t-179 110t-100 199t-27 244zM183 572q-1 -92 21 -173t63 -148t96 -108t122 -49t139 26q168 98 247 218t90 237t-33 221t-121 172t-173 90t-190 -26q-4 -40 -36 -67t-76 -27 h-8q-32 -36 -60 -81t-52 -103q-28 -90 -29 -182z" />
<glyph unicode="&#xf9;" horiz-adv-x="1064" d="M64 1092q0 46 33 77t79 31t79 -31t33 -77q0 -42 -29 -72t-69 -36q-14 -96 -15 -204t10 -211t34 -194t55 -151t74 -82t92 13t107 134t121 279q12 82 26 191t22 249q-58 28 -58 96q0 46 33 77t79 31t79 -31t33 -77q0 -48 -38 -80q-8 -134 -8 -231t7 -169t19 -124t24 -95 t25 -84t21 -89q32 -12 52 -39t20 -61q0 -46 -33 -77t-79 -31t-79 31t-33 77q0 48 36 80q-6 32 -9 62t-7 66t-13 83t-29 115q-20 -84 -60 -174t-91 -165t-110 -126t-116 -59t-110 36t-92 159t-61 311t-18 492q-36 32 -36 80zM180 1692q0 46 34 79t82 33t82 -33t34 -79 q0 -16 -2 -24l138 -100q32 28 76 28q48 0 82 -33t34 -79t-34 -79t-82 -33t-82 33t-34 79v13t2 13q-24 20 -36 29t-25 16t-32 16l-57 27q-28 -18 -64 -18q-48 0 -82 33t-34 79z" />
<glyph unicode="&#xfa;" horiz-adv-x="1064" d="M64 1092q0 46 33 77t79 31t79 -31t33 -77q0 -42 -29 -72t-69 -36q-14 -96 -15 -204t10 -211t34 -194t55 -151t74 -82t92 13t107 134t121 279q12 82 26 191t22 249q-58 28 -58 96q0 46 33 77t79 31t79 -31t33 -77q0 -48 -38 -80q-8 -134 -8 -231t7 -169t19 -124t24 -95 t25 -84t21 -89q32 -12 52 -39t20 -61q0 -46 -33 -77t-79 -31t-79 31t-33 77q0 48 36 80q-6 32 -9 62t-7 66t-13 83t-29 115q-20 -84 -60 -174t-91 -165t-110 -126t-116 -59t-110 36t-92 159t-61 311t-18 492q-36 32 -36 80zM260 1348q0 46 33 79t79 33t74 -28l134 100 q-2 8 -2 24q0 46 34 79t80 33t79 -33t33 -79t-33 -79t-79 -33q-38 0 -62 18q-36 -18 -55 -27t-31 -16t-24 -16t-36 -29q2 -6 2 -13v-13q0 -46 -34 -79t-80 -33t-79 33t-33 79z" />
<glyph unicode="&#xfb;" horiz-adv-x="1064" d="M64 1092q0 46 33 77t79 31t79 -31t33 -77q0 -42 -29 -72t-69 -36q-14 -96 -15 -204t10 -211t34 -194t55 -151t74 -82t92 13t107 134t121 279q12 82 26 191t22 249q-58 28 -58 96q0 46 33 77t79 31t79 -31t33 -77q0 -48 -38 -80q-8 -134 -8 -231t7 -169t19 -124t24 -95 t25 -84t21 -89q32 -12 52 -39t20 -61q0 -46 -33 -77t-79 -31t-79 31t-33 77q0 48 36 80q-6 32 -9 62t-7 66t-13 83t-29 115q-20 -84 -60 -174t-91 -165t-110 -126t-116 -59t-110 36t-92 159t-61 311t-18 492q-36 32 -36 80zM108 1470q0 46 34 79t82 33h10q32 56 54 94t42 70 t40 63t48 75q-22 28 -22 66q0 46 34 79t82 33t82 -33t34 -79q0 -38 -22 -66l214 -278h4q48 0 82 -33t34 -79t-34 -79t-82 -33t-82 33t-34 79q0 34 18 62l-212 276l-190 -306q16 -26 16 -56q0 -46 -34 -79t-82 -33t-82 33t-34 79z" />
<glyph unicode="&#xfc;" horiz-adv-x="1064" d="M64 1092q0 46 33 77t79 31t79 -31t33 -77q0 -42 -29 -72t-69 -36q-14 -96 -15 -204t10 -211t34 -194t55 -151t74 -82t92 13t107 134t121 279q12 82 26 191t22 249q-58 28 -58 96q0 46 33 77t79 31t79 -31t33 -77q0 -48 -38 -80q-8 -134 -8 -231t7 -169t19 -124t24 -95 t25 -84t21 -89q32 -12 52 -39t20 -61q0 -46 -33 -77t-79 -31t-79 31t-33 77q0 48 36 80q-6 32 -9 62t-7 66t-13 83t-29 115q-20 -84 -60 -174t-91 -165t-110 -126t-116 -59t-110 36t-92 159t-61 311t-18 492q-36 32 -36 80zM204 1488q0 46 34 79t82 33t82 -33t34 -79 t-34 -79t-82 -33t-82 33t-34 79zM562 1488q0 46 34 79t82 33t82 -33t34 -79t-34 -79t-82 -33t-82 33t-34 79z" />
<glyph unicode="&#xfd;" horiz-adv-x="1312" d="M28 1004q0 46 33 77t79 31t78 -30t34 -76l608 -894l196 900q-42 32 -42 86q0 46 33 77t79 31t79 -31t33 -77q0 -34 -18 -60t-48 -38l-366 -1662q10 -24 10 -46q0 -46 -33 -77t-79 -31t-79 31t-33 77q0 36 20 64t54 38l130 588q-16 22 -57 87t-97 152t-121 188t-127 196 t-118 174t-92 125q-18 -8 -44 -8q-46 0 -79 31t-33 77zM416 1492q0 46 33 79t79 33t74 -28l134 100q-2 8 -2 24q0 46 34 79t80 33t79 -33t33 -79t-33 -79t-79 -33q-38 0 -62 18q-36 -18 -55 -27t-31 -16t-24 -16t-36 -29q2 -6 2 -13v-13q0 -46 -34 -79t-80 -33t-79 33 t-33 79z" />
<glyph unicode="&#xfe;" horiz-adv-x="1016" d="M64 1774q0 46 33 77t79 31t79 -31t33 -77q0 -32 -16 -57t-44 -39l-14 -320q146 130 261 189t201 61t146 -42t93 -120t42 -174t-4 -202t-48 -206t-90 -185t-128 -139t-163 -68q-40 -4 -78 -8t-74 -1t-70 16t-66 41q2 -98 3 -141t2 -57t2 -9t2 1t3 -29t4 -95q24 -14 39 -38 t15 -54q0 -46 -33 -77t-79 -31t-79 31t-33 77q0 24 21 44t37 36l-10 1508q-20 16 -43 38t-23 50zM225 813q11 -123 75 -231q108 -32 201 5t164 115t119 184t68 213t9 200t-57 145t-131 49t-211 -87q-76 -52 -135 -146t-86 -209t-16 -238z" />
<glyph unicode="&#xff;" horiz-adv-x="1312" d="M28 1004q0 46 33 77t79 31t78 -30t34 -76l608 -894l196 900q-42 32 -42 86q0 46 33 77t79 31t79 -31t33 -77q0 -34 -18 -60t-48 -38l-366 -1662q10 -24 10 -46q0 -46 -33 -77t-79 -31t-79 31t-33 77q0 36 20 64t54 38l130 588q-16 22 -57 87t-97 152t-121 188t-127 196 t-118 174t-92 125q-18 -8 -44 -8q-46 0 -79 31t-33 77zM360 1328q0 46 34 79t82 33t82 -33t34 -79t-34 -79t-82 -33t-82 33t-34 79zM718 1328q0 46 34 79t82 33t82 -33t34 -79t-34 -79t-82 -33t-82 33t-34 79z" />
<glyph unicode="&#x152;" horiz-adv-x="2792" d="M100 778q2 156 35 311t97 297t154 253t204 183t246 84q10 34 41 57t71 23q42 0 74 -26t40 -66q172 -24 293 -104t194 -196t103 -259t20 -295t-58 -304t-127 -286t-189 -240t-244 -167t-292 -67t-332 62q-116 72 -189 187t-108 256t-33 297zM195 809q-9 -141 21 -271 t103 -244t201 -196q128 -44 251 -32t234 67t207 146t169 205t122 243t66 261t0 260t-76 239t-161 197t-256 134l-12 4l-12 4q-14 -28 -42 -46t-62 -18q-36 0 -64 18t-42 48q-92 -22 -182 -89t-170 -167t-144 -225t-103 -261t-48 -277zM1476 1842q0 46 34 79t82 33 q24 0 45 -9t37 -25q238 10 423 1t305 1q16 22 42 36t56 14q48 0 82 -33t34 -79t-34 -79t-82 -33q-70 0 -102 58q-94 -8 -213 -3t-229 11t-193 5t-103 -21l24 -788l614 8q16 28 42 44t60 16q48 0 82 -33t34 -79t-34 -79t-82 -33q-60 0 -92 44h-624l4 -710q54 -6 151 -11 t210 -7t227 -1t202 7q14 30 43 40t65 10q48 0 82 -33t34 -79t-34 -79t-82 -33q-40 0 -70 19t-42 53h-742q-14 -28 -43 -46t-63 -18q-48 0 -82 33t-34 79q0 30 15 54t39 40q6 66 8 200t1 328t-5 443t-12 547q-34 10 -57 40t-23 68z" />
<glyph unicode="&#x153;" horiz-adv-x="1936" d="M84 560q4 126 40 245t102 203q-6 18 -6 38q0 46 33 77t79 31q34 0 64 -20q114 40 208 30t167 -55t124 -120t79 -167q30 82 77 158t107 129t130 72t145 -13t153 -125t156 -263q28 -14 46 -40t18 -58q0 -46 -33 -77t-79 -31q-22 0 -40 6q-56 -18 -129 -24t-153 -10t-163 -9 t-161 -17q-18 -128 8 -208t78 -122t122 -52t143 0t138 36t109 56v16q0 46 33 77t79 31t79 -31t33 -77t-33 -77t-79 -31q-44 0 -76 28q-102 -102 -219 -139t-222 -15t-187 98t-116 198q-42 -90 -112 -163t-172 -115q-154 -52 -264 -23t-179 110t-100 199t-27 244zM183 572 q-1 -92 21 -173t63 -148t96 -108t122 -49t139 26q140 98 202 216t67 235t-36 221t-108 173t-148 91t-157 -24q-4 -40 -36 -67t-76 -27h-8q-32 -36 -60 -81t-52 -103q-28 -90 -29 -182zM1056 642l2 -2q56 0 122 4t135 10t138 16t129 22q2 34 28 62q-50 124 -105 189t-112 83 t-110 -7t-98 -79t-79 -131t-50 -167z" />
<glyph unicode="&#x178;" horiz-adv-x="1456" d="M20 1872q0 46 34 79t82 33t82 -33t34 -79v-6l604 -692l330 656q-22 28 -22 66q0 46 34 79t82 33t82 -33t34 -79q0 -44 -30 -76t-74 -36l-360 -712q0 -98 -2 -204t-5 -216t-4 -221t3 -215q34 -10 53 -39t19 -67q0 -46 -34 -79t-82 -33t-82 33t-34 79q0 58 48 90l-28 872 l-626 700q-30 -16 -55 -11t-43 22t-29 41t-11 48zM432 2140q0 46 34 79t82 33t82 -33t34 -79t-34 -79t-82 -33t-82 33t-34 79zM790 2140q0 46 34 79t82 33t82 -33t34 -79t-34 -79t-82 -33t-82 33t-34 79z" />
<glyph unicode="&#x2c6;" horiz-adv-x="976" d="M70 1318q0 46 34 79t82 33h10q32 56 54 94t42 70t40 63t48 75q-22 28 -22 66q0 46 34 79t82 33t82 -33t34 -79q0 -38 -22 -66l214 -278h4q48 0 82 -33t34 -79t-34 -79t-82 -33t-82 33t-34 79q0 34 18 62l-212 276l-190 -306q16 -26 16 -56q0 -46 -34 -79t-82 -33t-82 33 t-34 79z" />
<glyph unicode="&#x2dc;" horiz-adv-x="1256" d="M80 1348q0 46 34 79t82 33h2q80 126 144 187t117 76t96 -8t79 -66t68 -96t62 -100t61 -79t65 -29t74 47t90 150q-58 32 -58 98q0 46 34 79t82 33t82 -33t34 -79q0 -38 -23 -67t-57 -39q-18 -108 -62 -164t-98 -92q-74 -30 -129 -17t-99 50t-79 87t-66 97t-63 79t-68 32 q-28 6 -52 -11t-47 -48t-44 -71t-41 -78q12 -22 12 -50q0 -46 -34 -79t-82 -33t-82 33t-34 79z" />
<glyph unicode="&#x2000;" horiz-adv-x="1361" />
<glyph unicode="&#x2001;" horiz-adv-x="2722" />
<glyph unicode="&#x2002;" horiz-adv-x="1361" />
<glyph unicode="&#x2003;" horiz-adv-x="2722" />
<glyph unicode="&#x2004;" horiz-adv-x="907" />
<glyph unicode="&#x2005;" horiz-adv-x="680" />
<glyph unicode="&#x2006;" horiz-adv-x="453" />
<glyph unicode="&#x2007;" horiz-adv-x="453" />
<glyph unicode="&#x2008;" horiz-adv-x="340" />
<glyph unicode="&#x2009;" horiz-adv-x="544" />
<glyph unicode="&#x200a;" horiz-adv-x="151" />
<glyph unicode="&#x2010;" horiz-adv-x="1168" d="M104 620q0 46 34 79t82 33q52 0 88 -40q72 -2 138 -2t135 2t145 5t166 7q14 28 42 45t62 17q48 0 82 -33t34 -79t-34 -79t-82 -33q-54 0 -88 38q-4 0 4 1t5 1h-27t-89 -3t-181 -9t-306 -16q-36 -46 -94 -46q-48 0 -82 33t-34 79z" />
<glyph unicode="&#x2011;" horiz-adv-x="1168" d="M104 620q0 46 34 79t82 33q52 0 88 -40q72 -2 138 -2t135 2t145 5t166 7q14 28 42 45t62 17q48 0 82 -33t34 -79t-34 -79t-82 -33q-54 0 -88 38q-4 0 4 1t5 1h-27t-89 -3t-181 -9t-306 -16q-36 -46 -94 -46q-48 0 -82 33t-34 79z" />
<glyph unicode="&#x2012;" horiz-adv-x="1168" d="M104 620q0 46 34 79t82 33q52 0 88 -40q72 -2 138 -2t135 2t145 5t166 7q14 28 42 45t62 17q48 0 82 -33t34 -79t-34 -79t-82 -33q-54 0 -88 38q-4 0 4 1t5 1h-27t-89 -3t-181 -9t-306 -16q-36 -46 -94 -46q-48 0 -82 33t-34 79z" />
<glyph unicode="&#x2013;" horiz-adv-x="1168" d="M104 620q0 46 34 79t82 33q52 0 88 -40q72 -2 138 -2t135 2t145 5t166 7q14 28 42 45t62 17q48 0 82 -33t34 -79t-34 -79t-82 -33q-54 0 -88 38q-4 0 4 1t5 1h-27t-89 -3t-181 -9t-306 -16q-36 -46 -94 -46q-48 0 -82 33t-34 79z" />
<glyph unicode="&#x2014;" horiz-adv-x="2208" d="M104 620q0 46 69 79t167 33q105 0 178 -40q147 -2 281 -2t274 2t294.5 5t337.5 7q28 28 85 45t126 17q98 0 167 -33t69 -79t-69 -79t-167 -33q-109 0 -178 38q-9 0 7.5 1t10.5 1h-55t-181 -3t-367.5 -9t-621.5 -16q-73 -46 -191 -46q-98 0 -167 33t-69 79z" />
<glyph unicode="&#x2018;" horiz-adv-x="648" d="M182 1422q14 58 80 100q58 36 101 38t71 -18t42 -55t14 -71t-12 -67t-37 -43t-63 2t-86 68q-10 -50 3 -91t41 -76t66 -65t74 -60q-18 -34 -59 -26t-86 43t-86 89t-59 114t-4 118z" />
<glyph unicode="&#x2019;" horiz-adv-x="648" d="M276 1377q0 37 14 73t41 56t69 19t98 -39q64 -42 78 -102t-4 -121t-58 -117t-84 -91t-84 -43t-56 26q36 30 72 61t63 67t40 77t3 93q-48 -54 -84 -68t-60 -2t-36 43t-12 68z" />
<glyph unicode="&#x201a;" horiz-adv-x="472" d="M108 361q0 37 14 73t41 56t69 19t98 -39q64 -42 78 -102t-4 -121t-58 -117t-84 -91t-84 -43t-56 26q36 30 72 61t63 67t40 77t3 93q-48 -54 -84 -68t-60 -2t-36 43t-12 68z" />
<glyph unicode="&#x201c;" horiz-adv-x="976" d="M113 1460q3 62 35 113t76 87t93 53t87 9t59 -42t7 -102q-12 -56 -33 -82t-47 -32t-54 3t-50 21t-37 22t-17 8q-42 -62 -33 -107t44 -79t83 -61t84 -51q12 -10 -2 -21t-40 -19t-57 -7t-49 17q-84 70 -118 139t-31 131zM517 1438q3 62 35 113t76 87t93 53t87 9t59 -42 t7 -102q-12 -56 -33 -82t-47 -32t-54 3t-50 21t-37 22t-17 8q-42 -62 -33 -107t44 -79t83 -61t84 -51q12 -10 -2 -21t-40 -19t-57 -7t-49 17q-84 70 -118 139t-31 131z" />
<glyph unicode="&#x201d;" horiz-adv-x="976" d="M176 1568q-16 90 19 123t88 21t108 -61t80 -123t5 -165t-118 -187q-16 -16 -43 -17t-49 7t-35 19t-3 21q32 26 74 53t72 61t38 80t-28 108q-2 2 -15 -8t-33 -22t-44 -21t-46 -4t-41 31t-29 84zM528 1590q-16 90 19 123t88 21t108 -61t80 -123t4 -165t-119 -187 q-16 -16 -42 -17t-49 7t-36 19t-1 21q32 26 74 53t72 61t37 80t-29 108q-2 2 -14 -8t-32 -22t-44 -21t-46 -4t-41 31t-29 84z" />
<glyph unicode="&#x201e;" horiz-adv-x="976" d="M172 394q-16 90 19 123t88 21t108 -61t80 -123t5 -165t-118 -187q-16 -16 -43 -17t-49 7t-35 19t-3 21q32 26 74 53t72 61t38 80t-28 108q-2 2 -15 -8t-33 -22t-44 -21t-46 -4t-41 31t-29 84zM524 416q-16 90 19 123t88 21t108 -61t80 -123t4 -165t-119 -187 q-16 -16 -42 -17t-49 7t-36 19t-1 21q32 26 74 53t72 61t37 80t-29 108q-2 2 -14 -8t-32 -22t-44 -21t-46 -4t-41 31t-29 84z" />
<glyph unicode="&#x2026;" horiz-adv-x="1114" d="M96 104q0 46 34 79t82 33t82 -33t34 -79t-34 -79t-82 -33t-82 33t-34 79zM454 104q0 46 34 79t82 33t82 -33t34 -79t-34 -79t-82 -33t-82 33t-34 79zM812 104q0 46 34 79t82 33t82 -33t34 -79t-34 -79t-82 -33t-82 33t-34 79z" />
<glyph unicode="&#x202f;" horiz-adv-x="544" />
<glyph unicode="&#x205f;" horiz-adv-x="680" />
<glyph unicode="&#x20ac;" horiz-adv-x="1824" d="M78 604q0 46 34 79t82 33q38 0 68 -21t42 -53q40 -2 79 -2h79q-10 112 0 226h-89t-79 4q-16 -22 -42 -36t-56 -14q-48 0 -82 33t-34 79t34 79t82 33q38 0 68 -21t42 -53q40 -2 81 -2h83q22 192 86 374t157 326t206 233t230 94t231 -92t210 -325h2q48 0 82 -33t34 -79 t-34 -79t-82 -33t-82 33t-34 79q0 40 24 70q-52 192 -134 275t-178 81t-195 -79t-185 -204t-149 -293t-87 -348q84 2 166 6t156 14q14 32 43 52t67 20q48 0 82 -33t34 -79t-34 -79t-82 -33q-30 0 -55 13t-41 35q-74 0 -164 -5t-182 -9q-4 -58 -6 -115t2 -115q88 2 173 6 t161 14q14 32 43 52t67 20q48 0 82 -33t34 -79t-34 -79t-82 -33q-30 0 -55 13t-41 35q-72 0 -162 -5t-180 -9q2 -18 4 -37t6 -37q34 -158 101 -243t154 -114t185 -11t192 66t178 116t144 142q-22 32 -22 68q0 46 34 79t82 33t82 -33t34 -79t-30 -77t-76 -35 q-68 -80 -156 -159t-199 -136t-247 -79t-298 14q-114 76 -177 213t-85 307q-50 -2 -94 -2t-84 4q-16 -22 -42 -36t-56 -14q-48 0 -82 33t-34 79z" />
<glyph unicode="&#x25fc;" horiz-adv-x="1220" d="M0 0v1220h1220v-1220h-1220z" />
</font>
</defs>
</svg>
